Хищные птицы: Потрясающая история Харли Квинн / Birds of Prey: And the Fantabulous Emancipation of One Harley Quinn (Кэти Янь) [2020, Боевик, криминал, комедия, WEB-DL 1080p] [iTunes]

 
Автор Сообщение

Ravilya ®

Не в сети

5603

Пол: Не указан

Стаж: 2 месяца 12 дней

Сообщений: 105

Карма: 100

[+]

Провайдер: Не указан Не указан

Наличие запрета:



Награды: Нет

[Профиль] ЛС

Создавать темы 01-Апр-2020 04:00

Цитировать

Хищные птицы: Потрясающая история Харли Квинн
Birds of Prey: And the Fantabulous Emancipation of One Harley Quinn

-Год выпуска: 2020
Страна: США
Жанр: боевик, криминал, комедия
Продолжительность: 01:48:50-Перевод: Дублированный iTunes
Cубтитры: Русские (Forced, Full), украинские (Forced), английские
Режиссер: Кэти Янь-В ролях: Марго Робби, Джерни Смоллетт, Мэри Элизабет Уинстэд, Рози Перес, Элла Джей Баско, Юэн Макгрегор, Крис Мессина, Бояна Новакович, Али Вонг, Дэвид Ури-Описание: Группа супергероинь противостоит главе преступного мира Готэма, бизнесмену Роману Сайонису.- -Качество видео: WEB-DL 1080p
Формат видео: AVI-Видео: MPEG-4 AVC, 1920x800, 9242 Kbit/s, 23.976 fps
Аудио #1: 48 kHz, AC3, 5.1, 384 Kbps | iTunes | RUS
Аудио #2: 48 kHz, AC3, 2.0, 192 Kbps | iTunes | UKR
Аудио #3: 48 kHz, E-AC3, 5.1, 640 Kbps | Оригинал | ENG-

MI

General
Unique ID : 230208466602661758193375654375340760318 (0xAD3089B5A8D2F78CCFF182AF25A5DCFE)
Complete name : Birds.of.Prey.and.the.Fantabulous.Emancipation.of.One.Harley.Quinn.2020.AMZN.WEB-DL.1080p.seleZen.mkv
Format : Matroska
Format version : Version 4
File size : 7.95 GiB
Duration : 1 h 48 min
Overall bit rate : 10.5 Mb/s
Movie name : Birds of Prey and the Fantabulous Emancipation of One Harley Quinn 2020 from селезень
Encoded date : UTC 2020-03-31 18:58:52
Writing application : mkvmerge v40.0.0 ('Old Town Road + Pony') 64-bit
Writing library : libebml v1.3.9 + libmatroska v1.5.2
Video
ID : 1
Format : AVC
Format/Info : Advanced Video Codec
Format profile : High@L4
Format settings : CABAC / 4 Ref Frames
Format settings, CABAC : Yes
Format settings, Reference : 4 frames
Codec ID : V_MPEG4/ISO/AVC
Duration : 1 h 48 min
Bit rate mode : Constant
Bit rate : 9 242 kb/s
Nominal bit rate : 10 000 kb/s
Width : 1 920 pixels
Height : 800 pixels
Display aspect ratio : 2.40:1
Frame rate mode : Constant
Frame rate : 23.976 (24000/1001) FPS
Color space : YUV
Chroma subsampling : 4:2:0
Bit depth : 8 bits
Scan type : Progressive
Bits/(Pixel*Frame) : 0.251
Stream size : 7.03 GiB (88%)
Language : English
Default : Yes
Forced : No
Color range : Limited
Color primaries : BT.709
Transfer characteristics : BT.709
Matrix coefficients : BT.709
Audio #1
ID : 2
Format : AC-3
Format/Info : Audio Coding 3
Commercial name : Dolby Digital
Codec ID : A_AC3
Duration : 1 h 48 min
Bit rate mode : Constant
Bit rate : 384 kb/s
Channel(s) : 6 channels
Channel layout : L R C LFE Ls Rs
Sampling rate : 48.0 kHz
Frame rate : 31.250 FPS (1536 SPF)
Compression mode : Lossy
Stream size : 299 MiB (4%)
Title : iTunes
Language : Russian
Service kind : Complete Main
Default : Yes
Forced : Yes
Audio #2
ID : 3
Format : AC-3
Format/Info : Audio Coding 3
Commercial name : Dolby Digital
Codec ID : A_AC3
Duration : 1 h 48 min
Bit rate mode : Constant
Bit rate : 192 kb/s
Channel(s) : 2 channels
Channel layout : L R
Sampling rate : 48.0 kHz
Frame rate : 31.250 FPS (1536 SPF)
Compression mode : Lossy
Stream size : 149 MiB (2%)
Title : iTunes
Language : Ukrainian
Service kind : Complete Main
Default : No
Forced : No
Audio #3
ID : 4
Format : E-AC-3 JOC
Format/Info : Enhanced AC-3 with Joint Object Coding
Commercial name : Dolby Digital Plus with Dolby Atmos
Codec ID : A_EAC3
Duration : 1 h 48 min
Bit rate mode : Constant
Bit rate : 640 kb/s
Channel(s) : 6 channels
Channel layout : L R C LFE Ls Rs
Sampling rate : 48.0 kHz
Frame rate : 31.250 FPS (1536 SPF)
Compression mode : Lossy
Stream size : 498 MiB (6%)
Title : Original
Language : English
Service kind : Complete Main
Default : No
Forced : No
Complexity index : 16
Number of dynamic objects : 15
Bed channel count : 1 channel
Bed channel configuration : LFE
Text #1
ID : 5
Format : UTF-8
Codec ID : S_TEXT/UTF8
Codec ID/Info : UTF-8 Plain Text
Duration : 1 h 41 min
Bit rate : 3 b/s
Count of elements : 53
Stream size : 2.42 KiB (0%)
Title : Forced
Language : Russian
Default : Yes
Forced : Yes
Text #2
ID : 6
Format : UTF-8
Codec ID : S_TEXT/UTF8
Codec ID/Info : UTF-8 Plain Text
Duration : 1 h 48 min
Bit rate : 91 b/s
Count of elements : 1335
Stream size : 72.8 KiB (0%)
Title : Full
Language : Russian
Default : No
Forced : No
Text #3
ID : 7
Format : UTF-8
Codec ID : S_TEXT/UTF8
Codec ID/Info : UTF-8 Plain Text
Duration : 1 h 47 min
Bit rate : 3 b/s
Count of elements : 55
Stream size : 2.72 KiB (0%)
Title : Forced
Language : Ukrainian
Default : No
Forced : No
Text #4
ID : 8
Format : UTF-8
Codec ID : S_TEXT/UTF8
Codec ID/Info : UTF-8 Plain Text
Duration : 1 h 48 min
Bit rate : 53 b/s
Count of elements : 1586
Stream size : 42.5 KiB (0%)
Title : Full
Language : English
Default : No
Forced : No
Text #5
ID : 9
Format : UTF-8
Codec ID : S_TEXT/UTF8
Codec ID/Info : UTF-8 Plain Text
Duration : 1 h 48 min
Bit rate : 75 b/s
Count of elements : 2100
Stream size : 59.8 KiB (0%)
Title : SDH
Language : English
Default : No
Forced : No
Menu
00:00:00.000 : en:Studio Logos
00:00:30.000 : en:Harley Quinn's backstory
00:01:56.000 : en:Trying to get her life together
00:05:43.000 : en:A chance to be a new woman
00:07:59.000 : en:Title Sequence
00:08:07.000 : en:Meet the cop
00:10:44.000 : en:Roman Sionis aka Black Mask
00:12:41.000 : en:Life without immunity
00:17:52.000 : en:Montoya makes her case to the Captain
00:21:37.000 : en:Ambush at the station
00:23:55.000 : en:The Black Canary
00:33:39.000 : en:Caught in the cross-hairs
00:38:01.000 : en:An unexpected complication
00:40:15.000 : en:An offer to help Sionis
00:46:29.000 : en:Breaking Cass out of prison
00:53:43.000 : en:Harley and Cass bond
01:01:14.000 : en:The Huntress
01:04:24.000 : en:Roman is losing it
01:06:53.000 : en:Things get worse for Montoya
01:08:09.000 : en:The cost of business
01:14:07.000 : en:Meeting at the amusement park
01:23:50.000 : en:Girl power
01:29:53.000 : en:Black Canary has to sing
01:31:25.000 : en:There is power in fear
01:37:34.000 : en:The emancipation of everyone
01:41:24.000 : en:End Credits
Показать сообщения:    

Текущее время: 06-Июн 00:24

Часовой пояс: UTC - 5



Вы не можете начинать темы
Вы не можете отвечать на сообщения
Вы не можете редактировать свои сообщения
Вы не можете удалять свои сообщения
Вы не можете голосовать в опросах
Вы не можете прикреплять файлы к сообщениям
Вы не можете скачивать файлы