Регистрация ·
Имя: Пароль:  
· Забыли пароль? · Вопросы от гостей
Интрижка
iTunes
WEB-DLRip
WarFace
Лицензия
Русский
Хоббит / Властелин колец
Коллекция
BDRip 1080p H264
SamDrivers
x32/x64
Repack
Чудесный доктор
WEB-DL 1080p
Турция
Острые козырьки
H265 1080p BluRay
Uzb+Ing
S.T.A.L.K.E.R
Анталогия
Repack
Зов джунглей
Рус
WEB-DL 1080p
Ajal Poygasi
Uzb Rus Ing
BrRip 1080p H264
Yengilmas Gvardiya
O'zbek Tilida
WEB-DL 1080p H264
Suv va Olov
O'zbek Tilida
BDRip H264
S.T.A.L.K.E.R.
Анталогия Модов
GSC Game World
GTA 5
RePack
Лицензия
Tunnel: Hayot uchun xavfli
Uzb Tilida
WEB-DL 1080p
Уважаемые гости сайта! Добро Пожаловать на наш торрент трекер,где Вы можете бесплатно скачать любой Софт,Фильмы,Музыку и многое другое! А так же постоянно ведется набор модераторов и релизеров. Зарегистрируйтесь сейчас, чтобы получить доступ ко всем функциям. После регистрации или входа на сайт вы сможете создавать темы, отвечать на сообщения и скачивать файлы.

Няня / Поворот винта / The Turning (Флория Сиджизмонди / Floria Sigismondi) [2020, Ужасы, драма, BDRip 720p] Лицензия

Статистика раздачи
Нет
 
     
 
 
Автор Сообщение

NuRKHoNoFF ®

Не в сети

5408

VIP пользователь

Пол: Мужской

Стаж: 1 год 1 месяц

Сообщений: 121

Откуда: Каттакурган

Карма: 1010

[+]

Провайдер: Skyline Skyline

Наличие запрета:



Награды: Нет

[Профиль] ЛС

Создавать темы 11-Июл-2020 18:35

Цитировать

Няня / Поворот винта / The Turning -Год выпуска: 2020
Страна: Великобритания, Ирландия, Канада, США
Жанр: Ужасы, драма
Продолжительность: 01:34:29
Перевод: Дублированный [Лицензия]-Субтитры: Английские-Режиссер: Флория Сиджизмонди / Floria Sigismondi-В ролях: Маккензи Дэвис, Финн Вулфард, Бруклин Принс, Барбара Мартен, Джоэли Ричардсон, Ниал Грег Фултон, Денна Томсен, Ким Адис, Дарлин Гарр, Карен Иган, Марк Хубермэн-Описание: Начало 1990-х. Молодая учительница начальных классов по имени Кейт принимает заманчивое предложение и устраивается гувернанткой к 8-летней сиротке, предыдущая наставница которой, как ей сообщили, просто сбежала. На месте Кейт поражает шикарный особняк, в котором живёт маленькая Флора, и так же выясняется, что у девочки есть брат-подросток, которого на днях исключили из частной школы за драку. На этом сюрпризы не заканчиваются: строгая прислуга, пожилая миссис Гроз, запрещает Флоре покидать территорию поместья, а сама Кейт в первую же ночь начинает слышать странные звуки.
- -Качество: BDRip 720p
Формат: MKV
Видео: AVC, 1500 Kb/s, 1280x538
Аудио №1: AC3, 6 ch, 448 kbps | RUS
Аудио №2: AAC, 6 ch, 224 kbps | ENG-

MediaInfo

General
Unique ID : 55102927501998472112274680767308086166 (0x2974701450182BD7B0E9035CFAC7BB96)
Complete name : The.Turning.2020.BluRay.720p.ELEKTRI4KA.UNIONGANG.mkv
Format : Matroska
Format version : Version 4
File size : 1.44 GiB
Duration : 1 h 34 min
Overall bit rate : 2 178 kb/s
Movie name : The.Turning.2020.BluRay.720p.ELEKTRI4KA.UNIONGANG
Encoded date : UTC 2020-07-11 22:51:18
Writing application : mkvmerge v45.0.0 ('Heaven in Pennies') 64-bit
Writing library : libebml v1.3.10 + libmatroska v1.5.2
Video
ID : 1
Format : AVC
Format/Info : Advanced Video Codec
Format profile : High@L4.1
Format settings : CABAC / 4 Ref Frames
Format settings, CABAC : Yes
Format settings, Reference : 4 frames
Codec ID : V_MPEG4/ISO/AVC
Duration : 1 h 34 min
Bit rate : 1 500 kb/s
Width : 1 280 pixels
Height : 538 pixels
Display aspect ratio : 2.40:1
Original display aspect rat : 2.40:1
Frame rate mode : Constant
Frame rate : 23.976 (23976/1000) FPS
Color space : YUV
Chroma subsampling : 4:2:0
Bit depth : 8 bits
Scan type : Progressive
Bits/(Pixel*Frame) : 0.091
Stream size : 1 014 MiB (69%)
Title : ELEKTRI4KA.UNIONGANG
Writing library : x264 core 152 r2851M ba24899
Encoding settings : cabac=1 / ref=4 / deblock=1:-1:-1 / analyse=0x3:0x113 / me=umh / subme=9 / psy=1 / psy_rd=1.00:0.15 / mixed_ref=1 / me_range=24 / chroma_me=1 / trellis=2 / 8x8dct=1 / cqm=0 / deadzone=21,11 / fast_pskip=1 / chroma_qp_offset=-3 / threads=32 / lookahead_threads=4 / sliced_threads=0 / nr=0 / decimate=1 / interlaced=0 / bluray_compat=0 / constrained_intra=0 / bframes=3 / b_pyramid=2 / b_adapt=2 / b_bias=0 / direct=3 / weightb=1 / open_gop=0 / weightp=2 / keyint=250 / keyint_min=25 / scenecut=40 / intra_refresh=0 / rc_lookahead=50 / rc=2pass / mbtree=1 / bitrate=1500 / ratetol=1.0 / qcomp=0.60 / qpmin=0 / qpmax=69 / qpstep=4 / cplxblur=20.0 / qblur=0.5 / vbv_maxrate=31250 / vbv_bufsize=31250 / nal_hrd=none / filler=0 / ip_ratio=1.40 / aq=3:1.00
Language : English
Default : Yes
Forced : No
Audio #1
ID : 2
Format : AC-3
Format/Info : Audio Coding 3
Commercial name : Dolby Digital
Codec ID : A_AC3
Duration : 1 h 34 min
Bit rate mode : Constant
Bit rate : 448 kb/s
Channel(s) : 6 channels
Channel layout : L R C LFE Ls Rs
Sampling rate : 48.0 kHz
Frame rate : 31.250 FPS (1536 SPF)
Compression mode : Lossy
Delay relative to video : -43 ms
Stream size : 303 MiB (21%)
Title : License ELEKTRI4KA.UNIONGANG
Language : Russian
Service kind : Complete Main
Default : Yes
Forced : No
Audio #2
ID : 3
Format : AAC LC
Format/Info : Advanced Audio Codec Low Complexity
Codec ID : A_AAC-2
Duration : 1 h 34 min
Bit rate : 224 kb/s
Channel(s) : 6 channels
Channel layout : C L R Ls Rs LFE
Sampling rate : 48.0 kHz
Frame rate : 46.875 FPS (1024 SPF)
Compression mode : Lossy
Delay relative to video : -43 ms
Stream size : 151 MiB (10%)
Title : ELEKTRI4KA.UNIONGANG
Language : English
Default : No
Forced : No
Text
ID : 4
Format : VobSub
Muxing mode : zlib
Codec ID : S_VOBSUB
Codec ID/Info : Picture based subtitle format used on DVDs
Duration : 1 h 29 min
Bit rate : 6 602 b/s
Count of elements : 1001
Stream size : 4.20 MiB (0%)
Title : VobSub
Language : English
Default : No
Forced : No

_________________
Показать сообщения:    

Текущее время: 06-Авг 20:35

Часовой пояс: UTC - 5



Вы не можете начинать темы
Вы не можете отвечать на сообщения
Вы не можете редактировать свои сообщения
Вы не можете удалять свои сообщения
Вы не можете голосовать в опросах
Вы не можете прикреплять файлы к сообщениям
Вы не можете скачивать файлы