Регистрация ·
Имя: Пароль:  
· Забыли пароль? · Вопросы от гостей
Ko'd 211
O'zbek + Rus + Ing
BluRay 1080p
Интрижка
iTunes
WEB-DLRip
WarFace
Лицензия
Русский
Хоббит / Властелин колец
Коллекция
BDRip 1080p H264
SamDrivers
x32/x64
Repack
Чудесный доктор
WEB-DL 1080p
Турция
Острые козырьки
H265 1080p BluRay
Uzb+Ing
S.T.A.L.K.E.R
Анталогия
Repack
Зов джунглей
Рус
WEB-DL 1080p
Ajal Poygasi
Uzb Rus Ing
BrRip 1080p H264
Yengilmas Gvardiya
O'zbek Tilida
WEB-DL 1080p H264
Suv va Olov
O'zbek Tilida
BDRip H264
S.T.A.L.K.E.R.
Анталогия Модов
GSC Game World
GTA 5
RePack
Лицензия
Tunnel: Hayot uchun xavfli
Uzb Tilida
WEB-DL 1080p
Уважаемые гости сайта! Добро Пожаловать на наш торрент трекер,где Вы можете бесплатно скачать любой Софт,Фильмы,Музыку и многое другое! А так же постоянно ведется набор модераторов и релизеров. Зарегистрируйтесь сейчас, чтобы получить доступ ко всем функциям. После регистрации или входа на сайт вы сможете создавать темы, отвечать на сообщения и скачивать файлы.

Su va Olov / Вода и огонь / Suv ve Ates (Озджан Дениз / Özcan Deniz) [2013, Drama Melodrama, BDRip H264] O'zbek Tilida

Статистика раздачи
Скачал: [ 5 ]
 
     
 
 
Автор Сообщение

N.U.R.I.K.B.E.K ®

Не в сети

5417

Пол: Мужской

Стаж: 1 год 1 месяц

Сообщений: 27

Откуда: Jizzax.Paxtakor

Карма: 110

[+]

Провайдер: UzOnline UzOnline

Наличие запрета:



Награды: Нет

[Профиль] ЛС

Создавать темы 13-Июл-2020 08:55

Цитировать

--Suv va Olov | Вода и огонь | Su ve Ates
--Год выпуска: 2013
Страна: Turkiya
Жанр: Drama Melodrama
Продолжительность: 01:48:53
Перевод: SevimliTv O'zbek Tilida--Режиссер: Озджан Дениз / Özcan Deniz.--В ролях: Ozcan Deniz, Yasemin Allen, Pelin Oqil, Oqtay Dogan, Yusuf Akgyun, Burchin Birben, Kaan Chakyr, Jem Uchan, Barish Yalchyn, Sera Tokdemir, Metin Joshkun, Irem Djandar--Описание: Ushbu hikoya Hasmetni - Sharqning yozilmagan qonunlarini mensimaslikka qaror qilgan odam va Yamur - hayotning achchiq va qo'pol voqeliklari haqida deyarli hech narsa bilmaydigan sodda va begunoh qizga bo'lgan muhabbat haqida. O'zlarining baxtlari yo'lida ko'plab to'siqlar paydo bo'ladi va ularni engish uchun sevuvchilar maksimal kuch sarflashlari kerak.--Качество видео: BDRip H264
Формат видео: MKV--Видео: MPEG4 Video (H264) 1024x432 25fps 1 965 kb/s
Аудио: AAC 48000Hz stereo O'zbek Tili--

MediaInfo

General
Format : Matroska
Format version : Version 4
File size : 1.60 GiB
Duration : 1 h 48 min
Overall bit rate : 2 099 kb/s
Encoded date : UTC 2020-07-13 13:17:20
Writing application : mkvmerge v15.0.0 ('Duel with the Devil') 64-bit
Writing library : libebml v1.3.5 + libmatroska v1.4.5
Video
ID : 1
Format : AVC
Format/Info : Advanced Video Codec
Format profile : High@L4.1
Format settings : CABAC / 8 Ref Frames
Format settings, CABAC : Yes
Format settings, Reference fra : 8 frames
Codec ID : V_MPEG4/ISO/AVC
Duration : 1 h 48 min
Bit rate : 1 965 kb/s
Width : 1 024 pixels
Height : 432 pixels
Display aspect ratio : 2.40:1
Frame rate mode : Constant
Frame rate : 25.000 FPS
Color space : YUV
Chroma subsampling : 4:2:0
Bit depth : 8 bits
Scan type : Progressive
Bits/(Pixel*Frame) : 0.178
Stream size : 1.49 GiB (94%)
Writing library : x264 core 125 r2200 999b753
Language : English
Default : Yes
Forced : No
Audio
ID : 2
Format : AAC LC
Format/Info : Advanced Audio Codec Low Complexity
Codec ID : A_AAC-2
Duration : 1 h 48 min
Bit rate : 132 kb/s
Channel(s) : 2 channels
Channel layout : L R
Sampling rate : 48.0 kHz
Frame rate : 46.875 FPS (1024 SPF)
Compression mode : Lossy
Stream size : 102 MiB (6%)
Title : O'zbek Tili
Language : Uzbek
Default : Yes
Forced : Yes
Text
ID : 3
Format : UTF-8
Codec ID : S_TEXT/UTF8
Codec ID/Info : UTF-8 Plain Text
Duration : 1 h 20 min
Bit rate : 0 b/s
Count of elements : 3
Stream size : 159 Bytes (0%)
Default : Yes
Forced : No
LAVHALAR

#Maksadjon_17

Не в сети

5497

Пол: Мужской

Стаж: 9 месяцев 9 дней

Сообщений: 17

Карма: 20

[+]

Провайдер: UzOnline UzOnline

Наличие запрета:



Награды: Нет

[Профиль] ЛС

Создавать темы 13-Июл-2020 09:08 (спустя 12 минут)

Цитировать

N.U.R.I.K.B.E.K, Katta rahmat juda zo'r kino lekin.

N.U.R.I.K.B.E.K ®

Не в сети

5417

Пол: Мужской

Стаж: 1 год 1 месяц

Сообщений: 27

Откуда: Jizzax.Paxtakor

Карма: 110

[+]

Провайдер: UzOnline UzOnline

Наличие запрета:



Награды: Нет

[Профиль] ЛС

Создавать темы 13-Июл-2020 09:12 (спустя 4 минуты)

Цитировать

#Maksadjon_17, arzimaydi xa zo'r kino ekan tvda ozmoz ko'rib qolib taxliman dedim ayniqsa qizni otasi o'z qizini tug'dirvogani tasirli chiqan
Показать сообщения:    

Текущее время: 09-Авг 15:01

Часовой пояс: UTC - 5



Вы не можете начинать темы
Вы не можете отвечать на сообщения
Вы не можете редактировать свои сообщения
Вы не можете удалять свои сообщения
Вы не можете голосовать в опросах
Вы не можете прикреплять файлы к сообщениям
Вы не можете скачивать файлы