Регистрация ·
Имя: Пароль:  
· Забыли пароль? · Вопросы от гостей
Круиз по джунглям
Pazl Voice
WEB-DLRip-AVC
Папа Закодировался
Не требуется
WEB-DLRip
Маша
Не требуется
WEBRip
Прячься
iTunes
WEB-DL 1080p
The Ascent
RePack
Action, RPG
Форсаж 9
Чистый звук
WEB-DL 720p
Форсаж 9
Чистый звук
WEB-DLRip
Форсаж 9
Pazl Voice
WEB-DL 1080p
Папа за маму
iTunes
WEB-DLRip
Windows 7/10
Microsoft
7.7.2021
Убойные каникулы
Кураж-Бамбей
BDRip 720p
Уважаемые гости сайта! Добро Пожаловать на наш торрент трекер,где Вы можете бесплатно скачать любой Софт,Фильмы,Музыку и многое другое! А так же постоянно ведется набор модераторов и релизеров. Зарегистрируйтесь сейчас, чтобы получить доступ ко всем функциям. После регистрации или входа на сайт вы сможете создавать темы, отвечать на сообщения и скачивать файлы.

До нового года осталось

Umar ibn Al Xattob RoziAllohu Anhu FullHD 720p

Статистика раздачи
Скачал: [ 3 ]
Сегодня идет свободное скачивание без начисления Download
 
     
 
 
Автор Сообщение

Admin ®

Не в сети

2

VIP пользователь

Пол: Мужской

Стаж: 5 лет 6 месяцев

Сообщений: 171

Карма: 787

[+]

Провайдер: UzOnline UzOnline

Тарифный план: UNLIME 20 Mbit/sekund

Наличие запрета:



Награды: 2 (Подробнее)

Admin (Количество: 1) Авторитет (Количество: 1)
[Профиль] ЛС

Создавать темы 23-Ноя-2021 13:31

Цитировать

Umar ibn Al Xattob RoziAllohu Anhu
Chiqqan Yili: 2020
Davlat: O'zbekiston
Janr: Tarihiy
Davomiyligi: 03:45:40
Tarjima: O'zbek Tilida
Sifat: WEBRip, 720p
Format: MP4
Video: MPEG4 Video (H264) 1280x720 30fps 160kbps
Audio: AAC 44100Hz stereo 127kbps
Ассалому алайкум ҳурматли толиби илм!
Oлаётган билимингизга сабабчи бўлаётган Абдуллоҳ Домланинг ҳақида қисқа маълумот.
Абдуллоҳ Домла тахаллуси билан танилган даъий воизнинг асл исми Абдуғани. 1973–йили Ўш шаҳрида туғилган бўлиб, илм кўчасига 16 ёшда кирган ва дунёвий ва диний билимларни Ўшдаги устозлардан олган. Шунингдек, домла Ўш давлат университетнинг “Ўзбек гуманитар педагогика факультети”ни тамомлаган. Сайтга жойлаштирилган маърузаларни тайёрлашда Ҳанафий мазҳабидан замонамиз таниқли олимлари ва аввалги уламо китобларидан фойдаланади.
Абдуллоҳ Домла футбол ва стол теннисига қизиқади. “Абдуллоҳ Домланинг расмлари борми?” деган саволга “Ҳа, албатта, бор… уйда”, деб жавоб берди.
Саҳифамиздаги манбаълардан Оллоҳ ризолиги йўлида фойдаланишда ҳеч қандай ҳуқуқий чегара йўқ. Бироқ саҳифамиздаги аудио дарслардан ва матнлардан тижорий ва бошқа дунёвий мақсадларда фойдаланиш мумкин эмас.
Лутфан саҳифамиздаги ахборотни бошқа ўринларда иқтибос қилганда https://ilmnuri.net/ саҳифасидан олинди, деб кўрсатинг.
Илм Нури вебсаҳифасининг YouTube канали https://www.youtube.com/channel/UCtu4...
обуна бўлинг.

Abdulloh domla

Abdulloh domla maruzalari
Dolzarb Yangi 2020
Asmaul Husnaa 2019
Buyuklarning Sirlari 2018
Hujurot 2018
Mazhabboshilar 2017
Sahobai kiromlar 2017
Ali ibn Abu Tolib 2016
Ota-ona ila muomala 2016
Ramazon 2016
Tobeinlar 2012-2015
Abu Hanifa 2015
Farzand tarbiyasi 2014-2015
Ummahat-ul mo'minin 2014
Kahf surasi tafsiri 2014
Olamlarga rahmat Payg'ambar 2013-2014
Musulmon axloqi 2013
Ramazon 2013
Siyrat 2010-2012
Ramazon 2012
Qalb nuri 3 2011-2012
Qalb nuri 2 2008-2011
Mahzun bo'lma 2010
Sahobai kiromlar 2009
Turfa mavzular 2007-2009
ANihoya qissasi 2009
Qalb nuri 1 2006-2009
Hulafoi roshidiyn 2009
Ramazon 2008
Anbiyolar qissalari 2007
Ramazon 2006

Информация по видеофайлу

Format : MPEG-4
Format profile : Base Media / Version 2
Codec ID : mp42 (isom/mp42)
File size : 471 MiB
Duration : 3 h 45 min
Overall bit rate mode : Variable
Overall bit rate : 292 kb/s
Encoded date : UTC 2021-11-06 19:05:03
Tagged date : UTC 2021-11-06 19:05:03
gsst : 0
gstd : 13540066
Video
ID : 1
Format : AVC
Format/Info : Advanced Video Codec
Format profile : Main@L3.1
Format settings : CABAC / 3 Ref Frames
Format settings, CABAC : Yes
Format settings, Reference fra : 3 frames
Codec ID : avc1
Codec ID/Info : Advanced Video Coding
Duration : 3 h 45 min
Bit rate : 160 kb/s
Width : 1 280 pixels
Height : 720 pixels
Display aspect ratio : 16:9
Frame rate mode : Constant
Frame rate : 30.000 FPS
Color space : YUV
Chroma subsampling : 4:2:0
Bit depth : 8 bits
Scan type : Progressive
Bits/(Pixel*Frame) : 0.006
Stream size : 259 MiB (55%)
Title : ISO Media file produced by Google Inc. Created on: 11/06/2021.
Writing library : x264 core 155 r2901 7d0ff22
Encoded date : UTC 2021-11-06 19:05:03
Tagged date : UTC 2021-11-06 19:05:03
Color range : Limited
Color primaries : BT.709
Transfer characteristics : BT.709
Matrix coefficients : BT.709
Codec configuration box : avcC
Audio
ID : 2
Format : AAC LC
Format/Info : Advanced Audio Codec Low Complexity
Codec ID : mp4a-40-2
Duration : 3 h 45 min
Bit rate mode : Variable
Bit rate : 128 kb/s
Channel(s) : 2 channels
Channel layout : L R
Sampling rate : 44.1 kHz
Frame rate : 43.066 FPS (1024 SPF)
Compression mode : Lossy
Stream size : 207 MiB (44%)
Title : ISO Media file produced by Google Inc. Created on: 11/06/2021.
Language : English
Encoded date : UTC 2021-11-06 19:05:03
Tagged date : UTC 2021-11-06 19:05:03
Показать сообщения:    

Текущее время: 05-Дек 18:12

Часовой пояс: UTC - 5



Вы не можете начинать темы
Вы не можете отвечать на сообщения
Вы не можете редактировать свои сообщения
Вы не можете удалять свои сообщения
Вы не можете голосовать в опросах
Вы не можете прикреплять файлы к сообщениям
Вы не можете скачивать файлы