Регистрация ·
Имя: Пароль:  
· Забыли пароль? · Вопросы от гостей
Уважаемые гости сайта! Добро Пожаловать на наш торрент трекер,где Вы можете бесплатно скачать любой Софт,Фильмы,Музыку и многое другое! А так же постоянно ведется набор модераторов и релизеров. Зарегистрируйтесь сейчас, чтобы получить доступ ко всем функциям. После регистрации или входа на сайт вы сможете создавать темы, отвечать на сообщения и скачивать файлы.

Yunus alayhissalom qissasi FullHD 1080p

Статистика раздачи
Скачал: [ 1 ]
Сегодня идет свободное скачивание без начисления Download
 
     
 
 
Автор Сообщение

Admin ®

Не в сети

2

VIP пользователь

Пол: Мужской

Стаж: 6 лет

Сообщений: 176

Карма: 787

[+]

Провайдер: UzOnline UzOnline

Тарифный план: UNLIME 20 Mbit/sekund

Наличие запрета:



Награды: 2 (Подробнее)

Admin (Количество: 1) Авторитет (Количество: 1)
[Профиль] ЛС

Создавать темы 21-Апр-2022 13:27

Цитировать

Yunus alayhissalom qissasi FullHD 1080p
Год выпуска: 2022
Страна:
Жанр: драма, военный, биография, история
Продолжительность: 00:15:00 x 20
Перевод: Профессиональный (многоголосый, закадровый)
Режиссер:
В ролях:
Описание: Фильм, основанный на реальных событиях
Доп. информация:
Video: MPEG4 Video (H264) 1920x1080 25fps 2550kbps
Audio: AAC 44100Hz stereo 128kbps
Субтитры: отсутствуют
Реклама: Отсутствует
Качество: HDTVRip
Формат: MP4
Аудио: Аудио 1: 48 kHz, A_AAC-2, 2 channels, ~317 kbps (узбекский)

Информация по видеофайлу

Format : MPEG-4
Format profile : Base Media
Codec ID : isom (isom/iso2/avc1/mp41)
File size : 295 MiB
Duration : 15 min 23 s
Overall bit rate mode : Variable
Overall bit rate : 2 682 kb/s
Encoded date : UTC 2022-04-02 15:42:13
Tagged date : UTC 2022-04-02 15:42:13
Video
ID : 1
Format : AVC
Format/Info : Advanced Video Codec
Format profile : High@L4
Format settings : CABAC / 3 Ref Frames
Format settings, CABAC : Yes
Format settings, Reference fra : 3 frames
Codec ID : avc1
Codec ID/Info : Advanced Video Coding
Duration : 15 min 23 s
Bit rate : 2 551 kb/s
Width : 1 920 pixels
Height : 1 080 pixels
Display aspect ratio : 16:9
Frame rate mode : Constant
Frame rate : 25.000 FPS
Color space : YUV
Chroma subsampling : 4:2:0
Bit depth : 8 bits
Scan type : Progressive
Bits/(Pixel*Frame) : 0.049
Stream size : 281 MiB (95%)
Title : ISO Media file produced by Google Inc.
Writing library : x264 core 155 r2901 7d0ff22
Encoded date : UTC 2022-04-02 15:42:13
Tagged date : UTC 2022-04-02 15:42:13
Color range : Limited
Color primaries : BT.709
Transfer characteristics : BT.709
Matrix coefficients : BT.709
Codec configuration box : avcC
Audio
ID : 2
Format : AAC LC
Format/Info : Advanced Audio Codec Low Complexity
Codec ID : mp4a-40-2
Duration : 15 min 23 s
Bit rate mode : Variable
Bit rate : 128 kb/s
Channel(s) : 2 channels
Channel layout : L R
Sampling rate : 44.1 kHz
Frame rate : 43.066 FPS (1024 SPF)
Compression mode : Lossy
Stream size : 14.1 MiB (5%)
Title : ISO Media file produced by Google Inc.
Language : English
Default : Yes
Alternate group : 1
Encoded date : UTC 2022-04-02 15:39:56
Tagged date : UTC 2022-04-02 15:39:56

Скриншоты

Показать сообщения:    

Текущее время: 25-Июн 14:58

Часовой пояс: UTC - 5



Вы не можете начинать темы
Вы не можете отвечать на сообщения
Вы не можете редактировать свои сообщения
Вы не можете удалять свои сообщения
Вы не можете голосовать в опросах
Вы не можете прикреплять файлы к сообщениям
Вы не можете скачивать файлы