Регистрация ·
Имя: Пароль:  
· Забыли пароль? · Вопросы от гостей
Уважаемые гости сайта! Добро Пожаловать на наш торрент трекер,где Вы можете бесплатно скачать любой Софт,Фильмы,Музыку и многое другое! А так же постоянно ведется набор модераторов и релизеров. Зарегистрируйтесь сейчас, чтобы получить доступ ко всем функциям. После регистрации или входа на сайт вы сможете создавать темы, отвечать на сообщения и скачивать файлы.

Umar ibn al-Xattob / Умар ибн аль-Хаттаб / Farouk Omar / Сезон: 1 / Серии: 1-30 из 30 (Хэйтем Али) / Farouk Omar (Хэйтем Али) [2012, драма, военный, биография, история, HDTVRip]

Статистика раздачи
Качаю: [ 1 ]
Скачал: [ 2 ]
Сегодня идет свободное скачивание без начисления Download
 
     
 
 
Автор Сообщение

Admin ®

Не в сети

2

VIP пользователь

Пол: Мужской

Стаж: 6 лет

Сообщений: 176

Карма: 787

[+]

Провайдер: UzOnline UzOnline

Тарифный план: UNLIME 20 Mbit/sekund

Наличие запрета:



Награды: 2 (Подробнее)

Admin (Количество: 1) Авторитет (Количество: 1)
[Профиль] ЛС

Создавать темы 05-Сен-2019 13:36

Цитировать

Умар ибн аль-Хаттаб (сериал) / Farouk Omar / Сезон: 1 / Серии: 1-30 из 30 (Хэйтем Али) / Farouk Omar Год выпуска: 2012
Страна: Катар
Жанр: драма, военный, биография, история
Продолжительность: 00:40:00
Перевод: Профессиональный (многоголосый, закадровый)
Режиссер: Хэйтем Али
В ролях: Samer Ismail, Ghassan Massoud и другие
Описание: Фильм, основанный на реальных событиях, повествует об истории жизни второго праведного халифа Умара ибн аль-Хаттаба (Умар аль-Фарук), одного из самых ярых последователей пророка и первых исламских государей.
Трудно представить человека подобный Умару ибн аль-Хаттабу. Человек который относится к 100 великим людям когда либо живший на земле. Фильм не только полезный но и поучительный. Посмотрев этот сериал я не пожалел ни одной секунды потраченным на него.
Актеры сыграли идеально, особенно Самер Измаил он по крайней мере смог передать характер Второго Праведного Халифа.
Фильм рассказывает о зарождении Ислама, и его процветании во всем ближнем Востоке. А так же рассказывает о многих знаменитых и ключевых фигурах Исламского мира. Фильм подходит для любой аудитории и практический без возрастных ограничении.
Доп. информация:
Video: HVC1 1920x920 25fps [V: English [eng] (hevc main L4.1, yuv420p, 1920x920) [default]]
Audio: AAC 48000Hz stereo [A: Uzbek [uzb] (aac lc, 48000 Hz, stereo) [default]]
Audio: AAC 44100Hz stereo [A: Russian [rus] (aac lc, 44100 Hz, stereo)]
Audio: AAC 48000Hz stereo [A: Arabic [ara] (aac lc, 48000 Hz, stereo)]
Субтитры: отсутствуют
Реклама: Отсутствует
Качество: HDTVRip
Формат: MKV
Аудио: Аудио 1: 48 kHz, A_AAC-2, 2 channels, ~317 kbps (узбекский)

Информация по видеофайлу

General
Unique ID : 122755889073332986647857014125117595708 (0x5C59EC9C68DB18C06C979A17151C603C)
Complete name : D:\Umar bin al- Khattab 1-30\01 Umar bin al Khattab.mkv
Format : Matroska
Format version : Version 4
File size : 2.36 GiB
Duration : 42 min 50 s
Overall bit rate : 7 893 kb/s
Encoded date : UTC 2019-03-28 08:22:11
Writing application : mkvmerge v28.2.0 ('The Awakening') 64-bit
Writing library : libebml v1.3.6 + libmatroska v1.4.9
Video
ID : 1
Format : HEVC
Format/Info : High Efficiency Video Coding
Format profile : Main@L4.1@Main
Codec ID : V_MPEGH/ISO/HEVC
Duration : 42 min 50 s
Bit rate : 7 193 kb/s
Width : 1 920 pixels
Height : 920 pixels
Display aspect ratio : 2.087
Frame rate mode : Constant
Frame rate : 25.000 FPS
Color space : YUV
Chroma subsampling : 4:2:0
Bit depth : 8 bits
Bits/(Pixel*Frame) : 0.163
Stream size : 2.15 GiB (91%)
Language : English
Default : Yes
Forced : No
Color range : Full
Color primaries : BT.709
Transfer characteristics : BT.709
Matrix coefficients : BT.709
Audio #1
ID : 2
Format : AAC LC
Format/Info : Advanced Audio Codec Low Complexity
Codec ID : A_AAC-2
Duration : 42 min 50 s
Bit rate : 317 kb/s
Channel(s) : 2 channels
Channel layout : L R
Sampling rate : 48.0 kHz
Frame rate : 46.875 FPS (1024 SPF)
Compression mode : Lossy
Stream size : 97.3 MiB (4%)
Language : Uzbek
Default : Yes
Forced : No
Audio #2
ID : 3
Format : AAC LC
Format/Info : Advanced Audio Codec Low Complexity
Codec ID : A_AAC-2
Duration : 42 min 50 s
Bit rate : 126 kb/s
Channel(s) : 2 channels
Channel layout : L R
Sampling rate : 44.1 kHz
Frame rate : 43.066 FPS (1024 SPF)
Compression mode : Lossy
Stream size : 38.5 MiB (2%)
Language : Russian
Default : No
Forced : No
Audio #3
ID : 4
Format : AAC LC
Format/Info : Advanced Audio Codec Low Complexity
Codec ID : A_AAC-2
Duration : 42 min 50 s
Bit rate : 253 kb/s
Channel(s) : 2 channels
Channel layout : L R
Sampling rate : 48.0 kHz
Frame rate : 46.875 FPS (1024 SPF)
Compression mode : Lossy
Stream size : 77.6 MiB (3%)
Language : Arabic
Default : No
Forced : No

Скриншоты



Последний раз редактировалось: Admin (2022-01-15 07:24), всего редактировалось 3 раз(а)

-746

Создавать темы 20-Ноя-2019 13:06 (спустя 2 месяца 14 дней)

Топик был перенесен из форума Для пробных раздач в форум Сериалы других стран
DJ_JAMSHID

anrnr

Не в сети

5775

Пол: Мужской

Стаж: 1 год 11 месяцев

Сообщений: 4

Карма: 0

[+]

Провайдер: ISTV ISTV

Наличие запрета:



Награды: Нет

[Профиль] ЛС

Создавать темы 29-Апр-2022 05:29 (спустя 2 года 7 месяцев)

Цитировать

Admin, раздача можно?

anrnr

Не в сети

5775

Пол: Мужской

Стаж: 1 год 11 месяцев

Сообщений: 4

Карма: 0

[+]

Провайдер: ISTV ISTV

Наличие запрета:



Награды: Нет

[Профиль] ЛС

Создавать темы 29-Апр-2022 07:35 (спустя 2 часа 6 минут)

Цитировать

Admin, ?

anrnr

Не в сети

5775

Пол: Мужской

Стаж: 1 год 11 месяцев

Сообщений: 4

Карма: 0

[+]

Провайдер: ISTV ISTV

Наличие запрета:



Награды: Нет

[Профиль] ЛС

Создавать темы 03-Май-2022 00:48 (спустя 3 дня)

Цитировать

Admin, откуда скачали ссылку дайте

anrnr

Не в сети

5775

Пол: Мужской

Стаж: 1 год 11 месяцев

Сообщений: 4

Карма: 0

[+]

Провайдер: ISTV ISTV

Наличие запрета:



Награды: Нет

[Профиль] ЛС

Создавать темы 03-Май-2022 07:49 (спустя 7 часов)

Цитировать

Admin, во спс
Показать сообщения:    

Текущее время: 25-Июн 14:08

Часовой пояс: UTC - 5



Вы не можете начинать темы
Вы не можете отвечать на сообщения
Вы не можете редактировать свои сообщения
Вы не можете удалять свои сообщения
Вы не можете голосовать в опросах
Вы не можете прикреплять файлы к сообщениям
Вы не можете скачивать файлы