Регистрация ·
Имя: Пароль:  
· Забыли пароль? · Вопросы от гостей
Уважаемые гости сайта! Добро Пожаловать на наш торрент трекер,где Вы можете бесплатно скачать любой Софт,Фильмы,Музыку и многое другое! А так же постоянно ведется набор модераторов и релизеров. Зарегистрируйтесь сейчас, чтобы получить доступ ко всем функциям. После регистрации или входа на сайт вы сможете создавать темы, отвечать на сообщения и скачивать файлы.

Halk / Халк / Hulk (Ang Li) [2003, fantastika, jangari, 1080p, BluRay] O'zbek tilida

Статистика раздачи
Качаю: [ 1 ]
Скачал: [ 2 ]
Сегодня идет свободное скачивание без начисления Download
 
     
 
 
Автор Сообщение

gnom6862 ®

Не в сети

5454

Пол: Мужской

Стаж: 2 года 11 месяцев

Сообщений: 7

Карма: 0

[+]

Провайдер: UzOnline UzOnline

Наличие запрета:



Награды: Нет

[Профиль] ЛС

Создавать темы 19-Июн-2022 14:24

Цитировать

Halk | Халк | Hulk
Chiqqan yili: 2003
Davlat: AQSH
Janr: fantastika, jangari
Davomiyligi: 02:18:13
Subtitr: Yo'q
Tarjima: Professional (dublyaj) O'zbek tilida
Rejisser: Ang Li
Rollarda: Erik Bana, Jennifer Konnelli, Josh Lukas, Sem Elliott, Nik Nolte, Pol Kersi, Kara Buono, Todd Tesen, Kevin Renkin, Seliya Veston
Tavsif: Doktor Bryus Banner (yangi bomba ixtirosi ustida ishlayotgan olim) gamma-nurlariga duchor bo'ldi va g'azablangan holatda ulkan yashil yirtqich hayvonga aylanadigan aql bovar qilmaydigan jismoniy kuchga ega bo'lgan Xalkga aylandi. U general Ross boshchiligidagi harbiylar tomonidan ta'qib qilinadi, u butun mamlakat bo'ylab qochishga majbur. Oxir-oqibat, uning generalning qizi Betti bilan sevgi hikoyasi bor ...
Video sifati: BluRay
Video formati: MKV
Video kodeki: H.264
Audio kodeki: AAC
Video: BluRay x264, 1920x1040 (1.85:1), 23.976 fps, 1870 kb/s
Audio: AAC, 44.1 kHz, 2 ch, 192 kbps, Uzbek
Audio: AAC, 48.0 kHz, 2 ch, 96 kbps, English

MediaInfo

General
Unique ID : 107413135542915798258113290128651672595 (0x50CF047564667A97108114439F5F5C13)
Complete name : Hulk.2003.1080p.BrRip.x264.AAC.mkv
Format : Matroska
Format version : Version 4
File size : 2.09 GiB
Duration : 2 h 18 min
Overall bit rate : 2 163 kb/s
Encoded date : UTC 2022-06-19 18:41:03
Writing application : mkvmerge v68.0.0 ('The Curtain') 64-bit
Writing library : libebml v1.4.2 + libmatroska v1.6.4
Video
ID : 1
Format : AVC
Format/Info : Advanced Video Codec
Format profile : High@L4
Format settings : CABAC / 4 Ref Frames
Format settings, CABAC : Yes
Format settings, Reference : 4 frames
Codec ID : V_MPEG4/ISO/AVC
Duration : 2 h 18 min
Bit rate : 1 870 kb/s
Width : 1 920 pixels
Height : 1 040 pixels
Display aspect ratio : 1.85:1
Frame rate mode : Constant
Frame rate : 23.976 (24000/1001) FPS
Color space : YUV
Chroma subsampling : 4:2:0
Bit depth : 8 bits
Scan type : Progressive
Bits/(Pixel*Frame) : 0.039
Stream size : 1.81 GiB (86%)
Writing library : x264 core 130 r2273 b3065e6
Encoding settings : cabac=1 / ref=3 / deblock=1:-1:-1 / analyse=0x3:0x113 / me=hex / subme=7 / psy=1 / psy_rd=1.00:0.15 / mixed_ref=1 / me_range=16 / chroma_me=1 / trellis=1 / 8x8dct=1 / cqm=0 / deadzone=21,11 / fast_pskip=1 / chroma_qp_offset=-3 / threads=36 / lookahead_threads=6 / sliced_threads=0 / nr=0 / decimate=1 / interlaced=0 / bluray_compat=0 / constrained_intra=0 / bframes=3 / b_pyramid=2 / b_adapt=1 / b_bias=0 / direct=1 / weightb=1 / open_gop=0 / weightp=2 / keyint=240 / keyint_min=23 / scenecut=40 / intra_refresh=0 / rc_lookahead=40 / rc=2pass / mbtree=1 / bitrate=1870 / ratetol=1.0 / qcomp=0.60 / qpmin=10 / qpmax=51 / qpstep=4 / cplxblur=20.0 / qblur=0.5 / ip_ratio=1.40 / aq=1:1.00
Default : Yes
Forced : No
Audio #1
ID : 2
Format : AAC LC
Format/Info : Advanced Audio Codec Low Complexity
Codec ID : A_AAC-2
Duration : 2 h 18 min
Bit rate : 192 kb/s
Channel(s) : 2 channels
Channel layout : L R
Sampling rate : 44.1 kHz
Frame rate : 43.066 FPS (1024 SPF)
Compression mode : Lossy
Delay relative to video : -83 ms
Stream size : 192 MiB (9%)
Language : Uzbek
Default : Yes
Forced : No
Audio #2
ID : 3
Format : AAC LC
Format/Info : Advanced Audio Codec Low Complexity
Codec ID : A_AAC-2
Duration : 2 h 18 min
Bit rate : 96.0 kb/s
Channel(s) : 2 channels
Channel layout : L R
Sampling rate : 48.0 kHz
Frame rate : 46.875 FPS (1024 SPF)
Compression mode : Lossy
Delay relative to video : -83 ms
Stream size : 94.7 MiB (4%)
Language : English
Default : No
Forced : No
Показать сообщения:    

Текущее время: 15-Авг 15:00

Часовой пояс: UTC - 5



Вы не можете начинать темы
Вы не можете отвечать на сообщения
Вы не можете редактировать свои сообщения
Вы не можете удалять свои сообщения
Вы не можете голосовать в опросах
Вы не можете прикреплять файлы к сообщениям
Вы не можете скачивать файлы