Регистрация ·
Имя: Пароль:  
· Забыли пароль? · Вопросы от гостей
Уважаемые гости сайта! Добро Пожаловать на наш торрент трекер,где Вы можете бесплатно скачать любой Софт,Фильмы,Музыку и многое другое! А так же постоянно ведется набор модераторов и релизеров. Зарегистрируйтесь сейчас, чтобы получить доступ ко всем функциям. После регистрации или входа на сайт вы сможете создавать темы, отвечать на сообщения и скачивать файлы.

Повелитель: Бессмертный король / Overlord: The Undead King (Ито Наоюки) [2017, Приключения, фэнтези, BDRip-HEVC 1080p] MVO (Akari Group)

Статистика раздачи
Нет
Сегодня идет свободное скачивание без начисления Download
 
     
 
 
Автор Сообщение

-InVoKeR- ®

Не в сети

5420

Пол: Мужской

Стаж: 3 года 1 месяц

Сообщений: 50

Карма: 6

[+]

Провайдер: UzOnline UzOnline

Тарифный план: GPON Unlim 20 Premium (300 Mb/s)

Наличие запрета:



Награды: Нет

[Профиль] ЛС

Создавать темы 01-Авг-2022 12:34

Цитировать

Повелитель: Бессмертный король / Overlord: The Undead King-- Год выхода: 2017
Страна: Япония
Студия: Madhouse Studio
Жанр: приключения, фэнтези
Продолжительность: 01:42:22
Перевод: Любительский многоголосый, закадровый (Akari Group)-Режиссер: Ито Наоюки-В ролях: Хино Сатоси, Хара Юми, Уэсака Сумирэ, Като Эмири, Утияма Юми, Като Масаюки, Миякэ Кэнта, Тиба Сигэру-О фильме: Существует одна очень известная и легендарная игра под названием Иггдрасиль, но её неожиданно закрывают. Был некий игрок, который просто мечтал быть в этой игре немного дольше, у него был персонаж по имени Момонга, он решил, что останется в этой игре, пока полностью не отключат сервера. Момонга был личем, а так же главным в одной самой известной гильдии, он был представителем темной стороны. И в момент отключения он собрал всех, кто играл с ним, сел на трон и ждал неизбежного. Но тут случилось очень неожиданное, оказывается, игра не была закрыта, игра продолжалась, а Момонга стал скелетом, могущественным волшебником. У неигровых персонажей начали проявлять эмоции. Теперь он будет без помощи друзей, даже без информации о том, что сейчас творится в мире, у него сейчас одна цель, завоевать полностью этот мир, ведь он думал, что только так можно найти с него выход. Кстати личность игрока перешла к персонажу, вот что самое удивительное.-Качество: BDRip-HEVC 1080p
Формат: MKV
Видео: HEVC/x265, 1920x1080, 1208 kbps, 23.976 fps
Аудио (Rus(int)): AC-3, 192 kbps, 48,0 KHz, 2 ch | [Akari Group]
Аудио (Japanese): AC-3, 192 kbps, 48,0 KHz, 2 ch | [Original]
Субтитры: русские (встроенные полный перевод, ASS)--

MI

Общее
Уникальный идентификатор : 154979706088453705704962233815656855178 (0x74980173C5EF5434B1BA32D533B8768A)
Полное имя : Overlord Movies\01.Overlord. The Undead King.mkv
Формат : Matroska
Версия формата : Version 4
Размер файла : 1,14 Гбайт
Продолжительность : 1 ч. 42 м.
Общий поток : 1594 Кбит/сек
Дата кодирования : UTC 2020-06-13 04:16:51
Программа кодирования : mkvmerge v46.0.0 ('No Deeper Escape') 64-bit
Библиотека кодирования : libebml v1.3.10 + libmatroska v1.5.2
Видео
Идентификатор : 1
Формат : HEVC
Формат/Информация : High Efficiency Video Coding
Профиль формата : Main 10@L5@Main
Идентификатор кодека : V_MPEGH/ISO/HEVC
Продолжительность : 1 ч. 42 м.
Битрейт : 1208 Кбит/сек
Ширина : 1920 пикселей
Высота : 1080 пикселей
Соотношение сторон : 16:9
Режим частоты кадров : Постоянный
Частота кадров : 23,976 (24000/1001) кадра/сек
Цветовое пространство : YUV
Субдискретизация насыщенности : 4:2:0
Битовая глубина : 10 бит
Бит/(Пиксели*Кадры) : 0.024
Размер потока : 884 Мбайт (76%)
Заголовок : [Judas] x265 10b
Библиотека кодирования : x265 3.2.1+1-b5c86a64bbbe:[Windows][GCC 8.3.0][64 bit] 10bit
Настройки программы : cpuid=1111039 / frame-threads=4 / numa-pools=24 / wpp / no-pmode / no-pme / no-psnr / no-ssim / log-level=2 / input-csp=1 / input-res=1920x1080 / interlace=0 / total-frames=0 / level-idc=0 / high-tier=1 / uhd-bd=0 / ref=6 / no-allow-non-conformance / no-repeat-headers / annexb / no-aud / no-hrd / info / hash=0 / no-temporal-layers / open-gop / min-keyint=24 / keyint=240 / gop-lookahead=0 / bframes=8 / b-adapt=2 / b-pyramid / bframe-bias=0 / rc-lookahead=100 / lookahead-slices=4 / scenecut=40 / radl=0 / no-splice / no-intra-refresh / ctu=64 / min-cu-size=8 / rect / no-amp / max-tu-size=32 / tu-inter-depth=4 / tu-intra-depth=4 / limit-tu=0 / rdoq-level=2 / dynamic-rd=0.00 / no-ssim-rd / signhide / no-tskip / nr-intra=0 / nr-inter=0 / no-constrained-intra / strong-intra-smoothing / max-merge=3 / limit-refs=3 / limit-modes / me=3 / subme=3 / merange=57 / temporal-mvp / no-hme / weightp / no-weightb / no-analyze-src-pics / deblock=0:0 / sao / no-sao-non-deblock / rd=4 / selective-sao=4 / no-early-skip / rskip / no-fast-intra / no-tskip-fast / no-cu-lossless / no-b-intra / no-splitrd-skip / rdpenalty=0 / psy-rd=1.00 / psy-rdoq=1.00 / no-rd-refine / no-lossless / cbqpoffs=0 / crqpoffs=0 / rc=crf / crf=20.0 / qcomp=0.65 / qpstep=4 / stats-write=0 / stats-read=0 / ipratio=1.40 / pbratio=1.30 / aq-mode=3 / aq-strength=0.75 / cutree / zone-count=0 / no-strict-cbr / qg-size=32 / no-rc-grain / qpmax=69 / qpmin=0 / no-const-vbv / sar=1 / overscan=0 / videoformat=5 / range=0 / colorprim=1 / transfer=1 / colormatrix=1 / chromaloc=0 / display-window=0 / cll=0,0 / min-luma=0 / max-luma=1023 / log2-max-poc-lsb=8 / vui-timing-info / vui-hrd-info / slices=1 / no-opt-qp-pps / no-opt-ref-list-length-pps / no-multi-pass-opt-rps / scenecut-bias=0.05 / no-opt-cu-delta-qp / no-aq-motion / no-hdr / no-hdr-opt / no-dhdr10-opt / no-idr-recovery-sei / analysis-reuse-level=5 / scale-factor=0 / refine-intra=0 / refine-inter=0 / refine-mv=1 / refine-ctu-distortion=0 / no-limit-sao / ctu-info=0 / no-lowpass-dct / refine-analysis-type=0 / copy-pic=1 / max-ausize-factor=1.0 / no-dynamic-refine / no-single-sei / no-hevc-aq / no-svt / no-field / qp-adaptation-range=1.00
Язык : Japanese
Default : Да
Forced : Нет
Цветовой диапазон : Limited
Основные цвета : BT.709
Характеристики трансфера : BT.709
Коэффициенты матрицы : BT.709
Аудио #1
Идентификатор : 2
Формат : AC-3
Формат/Информация : Audio Coding 3
Коммерческое название : Dolby Digital
Идентификатор кодека : A_AC3
Продолжительность : 1 ч. 42 м.
Вид битрейта : Постоянный
Битрейт : 192 Кбит/сек
Каналы : 2 канала
ChannelLayout : L R
Частота : 48,0 КГц
Частота кадров : 31,250 кадров/сек (1536 SPF)
Метод сжатия : С потерями
Задержка видео : -7 мс.
Размер потока : 141 Мбайт (12%)
Заголовок : / Akari Group
Язык : Russian
ServiceKind/String : Complete Main
Default : Да
Forced : Нет
Аудио #2
Идентификатор : 3
Формат : AC-3
Формат/Информация : Audio Coding 3
Коммерческое название : Dolby Digital
Идентификатор кодека : A_AC3
Продолжительность : 1 ч. 42 м.
Вид битрейта : Постоянный
Битрейт : 192 Кбит/сек
Каналы : 2 канала
ChannelLayout : L R
Частота : 48,0 КГц
Частота кадров : 31,250 кадров/сек (1536 SPF)
Метод сжатия : С потерями
Задержка видео : -7 мс.
Размер потока : 141 Мбайт (12%)
Заголовок : Original
Язык : Japanese
ServiceKind/String : Complete Main
Default : Нет
Forced : Нет
Текст #1
Идентификатор : 4
Формат : ASS
Идентификатор кодека : S_TEXT/ASS
Идентификатор кодека/Информация : Advanced Sub Station Alpha
Продолжительность : 1 ч. 22 м.
Битрейт : 3 бит/сек
ElementCount : 17
Метод сжатия : Без потерь
Размер потока : 2,25 Кбайт (0%)
Заголовок : Надписи
Язык : Russian
Default : Да
Forced : Нет
Текст #2
Идентификатор : 5
Формат : ASS
Идентификатор кодека : S_TEXT/ASS
Идентификатор кодека/Информация : Advanced Sub Station Alpha
Продолжительность : 1 ч. 38 м.
Битрейт : 149 бит/сек
ElementCount : 1415
Метод сжатия : Без потерь
Размер потока : 107 Кбайт (0%)
Заголовок : Полные субтитры
Язык : Russian
Default : Нет
Forced : Нет
Меню
00:00:00.000 : :Chapter 1
00:11:21.514 : :Chapter 2
00:22:24.969 : :Chapter 3
00:26:05.856 : :Chapter 4
00:38:46.533 : :Chapter 5
00:50:45.960 : :Chapter 6
01:01:53.877 : :Chapter 7
01:06:00.999 : :Chapter 8
01:13:47.173 : :Chapter 9
01:23:27.461 : :Chapter 10
01:29:02.546 : :Chapter 11
01:38:34.992 : :Chapter 12
Показать сообщения:    

Текущее время: 15-Авг 13:37

Часовой пояс: UTC - 5



Вы не можете начинать темы
Вы не можете отвечать на сообщения
Вы не можете редактировать свои сообщения
Вы не можете удалять свои сообщения
Вы не можете голосовать в опросах
Вы не можете прикреплять файлы к сообщениям
Вы не можете скачивать файлы