Регистрация ·
Имя: Пароль:  
· Забыли пароль? · Вопросы от гостей
Уважаемые гости сайта! Добро Пожаловать на наш торрент трекер,где Вы можете бесплатно скачать любой Софт,Фильмы,Музыку и многое другое! А так же постоянно ведется набор модераторов и релизеров. Зарегистрируйтесь сейчас, чтобы получить доступ ко всем функциям. После регистрации или входа на сайт вы сможете создавать темы, отвечать на сообщения и скачивать файлы.

Повелитель / Overlord (Ито Наоюки) [1-Сезон] [Серии 13 из 13][Rus(int)][2015, Фентези, магия, BDRip-HEVC 720p] [AniDUB]

Статистика раздачи
Нет
Сегодня идет свободное скачивание без начисления Download
 
     
 
 
Автор Сообщение

-InVoKeR- ®

Не в сети

5420

Пол: Мужской

Стаж: 3 года 1 месяц

Сообщений: 50

Карма: 6

[+]

Провайдер: UzOnline UzOnline

Тарифный план: GPON Unlim 20 Premium (300 Mb/s)

Наличие запрета:



Награды: Нет

[Профиль] ЛС

Создавать темы 01-Авг-2022 12:45

Цитировать

Повелитель / Overlord--
Страна: Япония
Жанр: фентези, магия
Тип: TV-1 (13 эп.) 24мин.
Год выхода: 2015
Студия: Madhouse Studio
Режиссер: Ито Наоюки-Перевод: Любительский многоголосый, закадровый AniDUB-В ролях: Хино Сатоси, Хара Юми, Уэсака Сумирэ, Като Эмири, Утияма Юми, Като Масаюки, Миякэ Кэнта, Тиба Сигэру-О фильме: История начинается с последнего дня существования популярной онлайн-игры «Иггдрасиль». Главный герой, Момонга, решил остаться в любимой игре до самого последнего момента. Однако сервер не прекратил свою работу, и Момонга застревает в своем скелетоподобном персонаже и переносится в другой мир. Теперь "Могучему Властелину" придется открыть для себя новый мир и столкнуться с многочисленными испытаниями.У него нет ни родни, ни друзей, ни места под солнцем, но он приложит все усилия для того, чтобы завоевать новый мир, которым стала для него игра.-Качество: BDRip-HEVC 720p
Формат: MKV
Видео: HEVC, 1280x720, 1091 kbps, 23.976 fps,
Аудио: Звук (Rus(int)): AC-3, 192 kbps, 48,0 KHz, 2 ch | [AniDUB]--

MediaInfo

General
Unique ID : 229824880639419798349391103524241108504 (0xACE6A97622E9BD4F4B4FE3FE0DDF6E18)
Complete name : Overlord [720p]\Overlord 01.mkv
Format : Matroska
Format version : Version 4 / Version 2
File size : 232 MiB
Duration : 24mn 14s
Overall bit rate : 1 336 Kbps
Movie name : [Doki] Overlord - 01 (1280x720 HEVC BD AAC).mkv
Encoded date : UTC 2018-01-25 11:02:23
Writing application : mkvmerge v19.0.0 ('Brave Captain') 64-bit
Writing library : libebml v1.3.5 + libmatroska v1.4.8
DURATION : 00:24:14.144000000
NUMBER_OF_FRAMES : 45442
NUMBER_OF_BYTES : 34899456
_STATISTICS_WRITING_APP : mkvmerge v19.0.0 ('Brave Captain') 64-bit
_STATISTICS_WRITING_DATE_UTC : 2018-01-25 11:02:23
_STATISTICS_TAGS : BPS DURATION NUMBER_OF_FRAMES NUMBER_OF_BYTES
Attachment : Yes / Yes / Yes / Yes / Yes / Yes / Yes
Video
ID : 1
Format : V_MPEGH/ISO/HEVC
Codec ID : V_MPEGH/ISO/HEVC
Duration : 24mn 14s
Bit rate : 1 118 Kbps
Width : 1 280 pixels
Height : 720 pixels
Display aspect ratio : 16:9
Frame rate mode : Constant
Frame rate : 23.976 fps
Bits/(Pixel*Frame) : 0.051
Stream size : 194 MiB (84%)
Title : HEVC
Language : Japanese
Default : Yes
Forced : No
Audio
ID : 2
Format : AC-3
Format/Info : Audio Coding 3
Mode extension : CM (complete main)
Format settings, Endianness : Big
Codec ID : A_AC3
Duration : 24mn 14s
Bit rate mode : Constant
Bit rate : 192 Kbps
Channel(s) : 2 channels
Channel positions : Front: L R
Sampling rate : 48.0 KHz
Bit depth : 16 bits
Compression mode : Lossy
Stream size : 33.3 MiB (14%)
Language : Russian
Default : Yes
Forced : No
Menu
00:00:00.000 : en:Prologue
00:01:45.011 : en:OP
00:03:14.940 : en:Main
00:22:09.984 : en:ED
00:23:39.991 : en:Preview
Показать сообщения:    

Текущее время: 15-Авг 14:19

Часовой пояс: UTC - 5



Вы не можете начинать темы
Вы не можете отвечать на сообщения
Вы не можете редактировать свои сообщения
Вы не можете удалять свои сообщения
Вы не можете голосовать в опросах
Вы не можете прикреплять файлы к сообщениям
Вы не можете скачивать файлы