Регистрация ·
Имя: Пароль:  
· Забыли пароль? · Вопросы от гостей
Javohir politsiyachi
O'zbek Tilida
BDRip-AVC
Агент Ева
O'zbek Tilida
WEB-Rip
Анна
iTunes
BDRip 1080p
Анна
iTunes
BDRip-AVC
Анна
iTunes
BDRip
Mulan
O'zbek Tilida
WEBRip 1080p HEVC x265
Мулан
IdeaFilm
WEB-DL 720p
Мулан
IdeaFilm
WEB-DL 1080p
Мулан
IdeaFilm
WEB-DL 2160p
Temir Odam Uchligi
O'zbek Tilida
BluRay, 1080p, HEVC, x265, 10bit
Kliplar To'plami
O'zbek Tilida
Rizanova
Singularity
Repack
Mechanics
Tom Raider
Repack
Xatab
Far Cry New Dawn
Repack
Xatab
Far Cry 3
Repack
Xatab
Фитнес
Россия
WEB-DL 720p
Resident Evil
Гексалогия
Repack
Godzilla 2; Mahluqlar Qiroli
O'zbek Tilida
WEBRip HEVC 720p
Olimpning Qulashi
O'zbek Tilida
BDRip
X-Odamlar Qora Qaqnus
O'zbek Tilida
BDRip 1080p
Sevishganlar
O'zbek Tilida
HDRip
Maymunlar Sayyorasi Uchlik
O'zbek Tilida
BDRip
Koko Siri
O'zbek Tilida
BDRip-AVC
Спартак
РенТВ
BDRip 720p
Shelbilar oilasi
O'zbek Tilida
x265 1080p WEBRip 10bit
Однажды на востоке
Лицензия
BDRip 1080p
Yason va Argonaftlar
O'zbek Tilida
DVDRip x264
Shelbilar oilasi
O'zbek Tilida
BluRay 1080p x264
Qotillik Uchun Uch Kun
O'zbek Tilida
BluRay 1080p x264
Ko'd 211
O'zbek + Rus + Ing
BluRay 1080p
Интрижка
iTunes
WEB-DLRip
WarFace
Лицензия
Русский
Хоббит / Властелин колец
Коллекция
BDRip 1080p H264
SamDrivers
x32/x64
Repack
Чудесный доктор
WEB-DL 1080p
Турция
Острые козырьки
H265 1080p BluRay
Uzb+Ing
S.T.A.L.K.E.R
Анталогия
Repack
Зов джунглей
Рус
WEB-DL 1080p
Ajal Poygasi
Uzb Rus Ing
BrRip 1080p H264
Yengilmas Gvardiya
O'zbek Tilida
WEB-DL 1080p H264
Suv va Olov
O'zbek Tilida
BDRip H264
S.T.A.L.K.E.R.
Анталогия Модов
GSC Game World
GTA 5
RePack
Лицензия
Tunnel: Hayot uchun xavfli
Uzb Tilida
WEB-DL 1080p
Уважаемые гости сайта! Добро Пожаловать на наш торрент трекер,где Вы можете бесплатно скачать любой Софт,Фильмы,Музыку и многое другое! А так же постоянно ведется набор модераторов и релизеров. Зарегистрируйтесь сейчас, чтобы получить доступ ко всем функциям. После регистрации или входа на сайт вы сможете создавать темы, отвечать на сообщения и скачивать файлы.

Samoviy yo'l Uchlik (Jey Jey Abrams,Jastin Lin) [2009/2013/2016 y.,fantastika,jangari,sarguzasht,BDRip H264]

Статистика раздачи
Скачал: [ 10 ]
 
     
 
 
Автор Сообщение

Ahmadullo2019 ®

Не в сети

5505

Пол: Мужской

Стаж: 10 месяцев 16 дней

Сообщений: 15

Карма: 10

[+]

Провайдер: UzOnline UzOnline

Наличие запрета:



Награды: Нет

[Профиль] ЛС

Создавать темы 06-Дек-2019 04:50

Цитировать

Samoviy yo'l

Samoviy yo'l 1

Chiqqan yili: 2009
Davlat: AQSh,Germaniya
Janr: Fantastika
Davomiyligi: 02:06:48
Tarjima: Professional (Dublyaj)
Tarjima 2: Professional (Ko'p ovozli)
Rejissyor: Jey Jey Abrams
Rollarda: Kris Payn, Zachari Quinto, Zoe Saldana, Karl Urban, Erik Bana, Anton Yelchin, Saymon Pegg, Jon Cho, Leonard Nimoy, Bryus Grinvud-Tavsif: Romulus sayyorasidan Neron kelgusida Federatsiyadan qasos olish uchun kelganida, raqobatchilar Kirk va Spok unga o'zlari uchun qadrli bo'lgan barcha narsalarni yo'q qilishiga yo'l qo'ymaslik uchun birlashishlari kerak. Ajoyib janglar, hazil-mutoyiba va fazoviy tahdidlarga boy ushbu hayajonli sayohat davomida Korxonaning yangi tashkil etilgan a'zolari jasorat bilan tasavvur qilib bo'lmas xavflarga duch kelishadi.-Videoning sifati: BDRip
Video format: MKV
Video: H264, ~ 2000 Kbit/s, 1280x536
Audio: O'zbekcha (AAC, 2 ch, 128 Kbit/s)
Audio 2: Rushcha (AC3, 2 ch, 128 Kbit/s)-Subtitrlar: Ruscha

Media Info

General
Unique ID : 124144927867144365179312514876734278399 (0x5D657182D05FE957334621EA63D18AFF)
Complete name : K:\MEDIA\HD MOVIES\TARJIMA HD x264 x265\Samoviy yo'l Uchlik\Samoviy.yo'l.1.2009.BDRip.720p.mkv
Format : Matroska
Format version : Version 4
File size : 2.27 GiB
Duration : 2 h 6 min
Overall bit rate : 2 562 kb/s
Movie name : Star.Trek.2009.BDRip.1080p.x264.Rus.Eng
Encoded date : UTC 2019-12-05 09:35:10
Writing application : mkvmerge v21.0.0 ('Tardigrades Will Inherit The Earth') 64-bit
Writing library : libebml v1.3.5 + libmatroska v1.4.8 / XviD4PSP 6.0 / 53.6.0
Video
ID : 1
Format : AVC
Format/Info : Advanced Video Codec
Format profile : High@L4.1
Format settings : CABAC / 3 Ref Frames
Format settings, CABAC : Yes
Format settings, Reference fra : 3 frames
Codec ID : V_MPEG4/ISO/AVC
Duration : 2 h 6 min
Bit rate : 2 000 kb/s
Width : 1 280 pixels
Height : 536 pixels
Display aspect ratio : 2.40:1
Original display aspect ratio : 2.40:1
Frame rate mode : Constant
Frame rate : 23.976 (24000/1001) FPS
Color space : YUV
Chroma subsampling : 4:2:0
Bit depth : 8 bits
Scan type : Progressive
Bits/(Pixel*Frame) : 0.122
Stream size : 1.75 GiB (77%)
Writing library : x264 core 116 r2019M 9cc407d
Encoding settings : cabac=1 / ref=3 / deblock=1:0:0 / analyse=0x3:0x133 / me=hex / subme=7 / psy=1 / psy_rd=1.00:0.20 / mixed_ref=1 / me_range=16 / chroma_me=1 / trellis=1 / 8x8dct=1 / cqm=0 / deadzone=21,11 / fast_pskip=1 / chroma_qp_offset=-3 / threads=8 / sliced_threads=0 / nr=0 / decimate=1 / interlaced=0 / bluray_compat=0 / constrained_intra=0 / bframes=3 / b_pyramid=1 / b_adapt=2 / b_bias=0 / direct=3 / weightb=1 / open_gop=0 / weightp=2 / keyint=230 / keyint_min=23 / scenecut=40 / intra_refresh=0 / rc_lookahead=40 / rc=abr / mbtree=1 / bitrate=2000 / ratetol=1.0 / qcomp=0.60 / qpmin=10 / qpmax=51 / qpstep=4 / ip_ratio=1.40 / aq=1:1.00
Language : English
Default : Yes
Forced : No
Audio #1
ID : 2
Format : AAC LC
Format/Info : Advanced Audio Codec Low Complexity
Codec ID : A_AAC-2
Duration : 2 h 6 min
Bit rate : 192 kb/s
Channel(s) : 2 channels
Channel layout : L R
Sampling rate : 48.0 kHz
Frame rate : 46.875 FPS (1024 SPF)
Compression mode : Lossy
Stream size : 177 MiB (8%)
Title : uzb(ntt)
Language : Russian
Default : Yes
Forced : Yes
Audio #2
ID : 3
Format : AC-3
Format/Info : Audio Coding 3
Commercial name : Dolby Digital
Codec ID : A_AC3
Duration : 2 h 6 min
Bit rate mode : Constant
Bit rate : 384 kb/s
Channel(s) : 6 channels
Channel layout : L R C LFE Ls Rs
Sampling rate : 48.0 kHz
Frame rate : 31.250 FPS (1536 SPF)
Bit depth : 16 bits
Compression mode : Lossy
Stream size : 348 MiB (15%)
Title : AC3 Dub
Language : Russian
Service kind : Complete Main
Default : No
Forced : No
Text #1
ID : 4
Format : UTF-8
Codec ID : S_TEXT/UTF8
Codec ID/Info : UTF-8 Plain Text
Duration : 10 s 0 ms
Bit rate : 36 b/s
Count of elements : 1
Stream size : 45.0 Bytes (0%)
Language : Russian
Default : Yes
Forced : Yes
Text #2
ID : 5
Format : UTF-8
Codec ID : S_TEXT/UTF8
Codec ID/Info : UTF-8 Plain Text
Duration : 1 h 57 min
Bit rate : 96 b/s
Count of elements : 1247
Stream size : 83.2 KiB (0%)
Language : Russian
Default : No
Forced : No

Lavhalar

Samoviy yo'l 2

Chiqqan yili: 2013
Davlat: AQSh,Germaniya
Janr: Fantastika
Davomiyligi: 02:12:06
Tarjima: Professional (Dublyaj)
Tarjima 2: Professional (Ko'p ovozli)
Rejissyor: Jey Jey Abrams
Rollarda: Leonard Nimoy, Kris Payn, Zachari Quinto, Zoe Saldana, Karl Urban, Saymon Pegg, Jon Cho, Benedikt Kamberbatch, Anton Yelchin, Bryus Grinvud-Tavsif: Yerga qaytib, "Enterprays" ekipaji ularning faoliyati va printsiplari ichki tomondan buzilganligini aniqladi. Filo tushunarsiz dahshat bilan cheklangan va dunyo tubsizlik qa'riga kirib borgani sari faol emas.
Kapitan Kirk ushbu betartiblik uchun javobgar va butun insoniyatni yo'q qilishga qodir yovuz odamni qo'lga olish operatsiyasini o'z zimmasiga oladi.
Chalkash o'yinda hayot uchun emas, balki o'lim uchun, sevgi va do'stlik Kirk uchun qolgan yagona narsa - uning jamoasi uchun qurbon bo'ladi.-Videoning sifati: BDRip
Video format: MKV
Video: H264, ~ 2000 Kbit/s, 1280x536
Audio: O'zbekcha (AAC, 2 ch, 128 Kbit/s)
Audio 2: Rushcha (AC3, 2 ch, 128 Kbit/s)-Subtitrlar: Ruscha

Media Info

General
Unique ID : 156114632529997805700369762258545257595 (0x757295A55FAE67D01DDC9514D77FAC7B)
Complete name : K:\MEDIA\HD MOVIES\TARJIMA HD x264 x265\Samoviy yo'l Uchlik\Samoviy.yo'l.2.2013.D.BDRip.720p.mkv
Format : Matroska
Format version : Version 4
File size : 2.34 GiB
Duration : 2 h 12 min
Overall bit rate : 2 540 kb/s
Encoded date : UTC 2019-12-05 11:58:18
Writing application : mkvmerge v21.0.0 ('Tardigrades Will Inherit The Earth') 64-bit
Writing library : libebml v1.3.5 + libmatroska v1.4.8 / XviD4PSP 6.0 / 53.6.0
Video
ID : 1
Format : AVC
Format/Info : Advanced Video Codec
Format profile : High@L4.1
Format settings : CABAC / 3 Ref Frames
Format settings, CABAC : Yes
Format settings, Reference fra : 3 frames
Codec ID : V_MPEG4/ISO/AVC
Duration : 2 h 12 min
Bit rate : 2 000 kb/s
Width : 1 280 pixels
Height : 536 pixels
Display aspect ratio : 2.40:1
Frame rate mode : Constant
Frame rate : 23.976 (24000/1001) FPS
Color space : YUV
Chroma subsampling : 4:2:0
Bit depth : 8 bits
Scan type : Progressive
Bits/(Pixel*Frame) : 0.122
Stream size : 1.81 GiB (77%)
Writing library : x264 core 116 r2019M 9cc407d
Encoding settings : cabac=1 / ref=3 / deblock=1:0:0 / analyse=0x3:0x133 / me=hex / subme=7 / psy=1 / psy_rd=1.00:0.20 / mixed_ref=1 / me_range=16 / chroma_me=1 / trellis=1 / 8x8dct=1 / cqm=0 / deadzone=21,11 / fast_pskip=1 / chroma_qp_offset=-3 / threads=8 / sliced_threads=0 / nr=0 / decimate=1 / interlaced=0 / bluray_compat=0 / constrained_intra=0 / bframes=3 / b_pyramid=1 / b_adapt=2 / b_bias=0 / direct=3 / weightb=1 / open_gop=0 / weightp=2 / keyint=230 / keyint_min=23 / scenecut=40 / intra_refresh=0 / rc_lookahead=40 / rc=abr / mbtree=1 / bitrate=2000 / ratetol=1.0 / qcomp=0.60 / qpmin=10 / qpmax=51 / qpstep=4 / ip_ratio=1.40 / aq=1:1.00
Language : English
Default : Yes
Forced : No
Audio #1
ID : 2
Format : AC-3
Format/Info : Audio Coding 3
Commercial name : Dolby Digital
Codec ID : A_AC3
Duration : 2 h 12 min
Bit rate mode : Constant
Bit rate : 384 kb/s
Channel(s) : 6 channels
Channel layout : L R C LFE Ls Rs
Sampling rate : 48.0 kHz
Frame rate : 31.250 FPS (1536 SPF)
Bit depth : 16 bits
Compression mode : Lossy
Stream size : 363 MiB (15%)
Language : Russian
Service kind : Complete Main
Default : No
Forced : No
Audio #2
ID : 5
Format : AAC LC
Format/Info : Advanced Audio Codec Low Complexity
Codec ID : A_AAC-2
Duration : 2 h 12 min
Bit rate : 192 kb/s
Channel(s) : 2 channels
Channel layout : L R
Sampling rate : 44.1 kHz
Frame rate : 43.066 FPS (1024 SPF)
Compression mode : Lossy
Stream size : 184 MiB (8%)
Title : uzb(kinoteatr)
Language : Russian
Default : Yes
Forced : Yes
Text #1
ID : 3
Format : UTF-8
Codec ID : S_TEXT/UTF8
Codec ID/Info : UTF-8 Plain Text
Duration : 2 h 2 min
Bit rate : 111 b/s
Count of elements : 1775
Stream size : 99.9 KiB (0%)
Language : Russian
Default : No
Forced : No
Text #2
ID : 4
Format : UTF-8
Codec ID : S_TEXT/UTF8
Codec ID/Info : UTF-8 Plain Text
Duration : 10 s 0 ms
Bit rate : 36 b/s
Count of elements : 1
Stream size : 45.0 Bytes (0%)
Default : Yes
Forced : Yes

Lavhalar

Samoviy yo'l 3

Chiqqan yili: 2016
Davlat: AQSh,Gong kong,Xitoy
Janr: Fantastika
Davomiyligi: 02:02:22
Tarjima: Professional (Dublyaj)
Tarjima 2: Professional (Ko'p ovozli)
Rejissyor: Jastin Lin
Rollarda: Kris Payn, Zaxari Quinto, Saymon Pegg, Karl Urban, Zoe Saldana, Jon Cho, Anton Yelchin, Idris Elba, Sofiya Butella, Jo Taslim-Tavsif: Starfleet kreyser flotining qo'rqmas jamoasi fazoning o'zgarmas chuqurliklarini o'rganmoqda. Xavf-xatarlarga to'la bo'lgan ushbu sayohat paytida qahramonlar nafaqat o'zlarining missiyalari va Federatsiyaning barqarorligiga, balki butun dunyo tartibiga tahdid soluvchi sirli kuchga duch kelishadi.-Videoning sifati: BDRip
Video format: MKV
Video: H264, ~ 2000 Kbit/s, 1280x536
Audio: O'zbekcha (AAC, 2 ch, 128 Kbit/s)
Audio 2: Rushcha (AC3, 2 ch, 128 Kbit/s)-Subtitrlar: Ruscha

Media Info

General
Unique ID : 69407573090463317845617880856424595478 (0x3437698EFF547CC52EDE3D18B0E7C016)
Complete name : K:\MEDIA\HD MOVIES\TARJIMA HD x264 x265\Samoviy yo'l Uchlik\Samoviy.yo'l.3.2016.D.BDRip.720p.mkv
Format : Matroska
Format version : Version 4
File size : 2.27 GiB
Duration : 2 h 2 min
Overall bit rate : 2 654 kb/s
Encoded date : UTC 2019-12-05 11:30:15
Writing application : mkvmerge v21.0.0 ('Tardigrades Will Inherit The Earth') 64-bit
Writing library : libebml v1.3.5 + libmatroska v1.4.8 / XviD4PSP 6.0 / 53.6.0
Video
ID : 1
Format : AVC
Format/Info : Advanced Video Codec
Format profile : High@L4.1
Format settings : CABAC / 3 Ref Frames
Format settings, CABAC : Yes
Format settings, Reference fra : 3 frames
Codec ID : V_MPEG4/ISO/AVC
Duration : 2 h 2 min
Bit rate : 2 100 kb/s
Width : 1 280 pixels
Height : 536 pixels
Display aspect ratio : 2.40:1
Original display aspect ratio : 2.40:1
Frame rate mode : Constant
Frame rate : 23.976 (24000/1001) FPS
Color space : YUV
Chroma subsampling : 4:2:0
Bit depth : 8 bits
Scan type : Progressive
Bits/(Pixel*Frame) : 0.128
Stream size : 1.77 GiB (78%)
Writing library : x264 core 116 r2019M 9cc407d
Encoding settings : cabac=1 / ref=3 / deblock=1:0:0 / analyse=0x3:0x133 / me=hex / subme=7 / psy=1 / psy_rd=1.00:0.20 / mixed_ref=1 / me_range=16 / chroma_me=1 / trellis=1 / 8x8dct=1 / cqm=0 / deadzone=21,11 / fast_pskip=1 / chroma_qp_offset=-3 / threads=8 / sliced_threads=0 / nr=0 / decimate=1 / interlaced=0 / bluray_compat=0 / constrained_intra=0 / bframes=3 / b_pyramid=1 / b_adapt=2 / b_bias=0 / direct=3 / weightb=1 / open_gop=0 / weightp=2 / keyint=230 / keyint_min=23 / scenecut=40 / intra_refresh=0 / rc_lookahead=40 / rc=abr / mbtree=1 / bitrate=2100 / ratetol=1.0 / qcomp=0.60 / qpmin=10 / qpmax=51 / qpstep=4 / ip_ratio=1.40 / aq=1:1.00
Language : English
Default : Yes
Forced : No
Audio #1
ID : 2
Format : AAC LC
Format/Info : Advanced Audio Codec Low Complexity
Codec ID : A_AAC-2
Duration : 2 h 2 min
Bit rate : 192 kb/s
Channel(s) : 2 channels
Channel layout : L R
Sampling rate : 44.1 kHz
Frame rate : 43.066 FPS (1024 SPF)
Compression mode : Lossy
Stream size : 171 MiB (7%)
Language : Russian
Default : Yes
Forced : Yes
Audio #2
ID : 3
Format : AC-3
Format/Info : Audio Coding 3
Commercial name : Dolby Digital
Codec ID : A_AC3
Duration : 2 h 2 min
Bit rate mode : Constant
Bit rate : 384 kb/s
Channel(s) : 6 channels
Channel layout : L R C LFE Ls Rs
Sampling rate : 48.0 kHz
Frame rate : 31.250 FPS (1536 SPF)
Bit depth : 16 bits
Compression mode : Lossy
Stream size : 336 MiB (14%)
Title : iTunes
Language : Russian
Service kind : Complete Main
Default : No
Forced : No
Text #1
ID : 4
Format : UTF-8
Codec ID : S_TEXT/UTF8
Codec ID/Info : UTF-8 Plain Text
Duration : 10 s 0 ms
Bit rate : 36 b/s
Count of elements : 1
Stream size : 45.0 Bytes (0%)
Language : Russian
Default : Yes
Forced : Yes
Text #2
ID : 5
Format : UTF-8
Codec ID : S_TEXT/UTF8
Codec ID/Info : UTF-8 Plain Text
Duration : 1 h 49 min
Bit rate : 1 b/s
Count of elements : 23
Stream size : 1.10 KiB (0%)
Title : Forced, iTunes
Language : Russian
Default : No
Forced : No
Text #3
ID : 6
Format : UTF-8
Codec ID : S_TEXT/UTF8
Codec ID/Info : UTF-8 Plain Text
Duration : 1 h 54 min
Bit rate : 78 b/s
Count of elements : 1178
Stream size : 66.0 KiB (0%)
Title : iTunes
Language : Russian
Default : No
Forced : No

Lavhalar

Показать сообщения:    

Текущее время: 19-Сен 11:11

Часовой пояс: UTC - 5



Вы не можете начинать темы
Вы не можете отвечать на сообщения
Вы не можете редактировать свои сообщения
Вы не можете удалять свои сообщения
Вы не можете голосовать в опросах
Вы не можете прикреплять файлы к сообщениям
Вы не можете скачивать файлы