Викинги / Vikings / Сезоны: 6 Полные / Серии: 1-20 из 10 (Йохан Ренк, Киаран Доннелли, Кен Джиротти и др.) [2019-2020, боевик, драма, военный, история, 1080p mkv] MVO (LostFilm) + Original ¶

Статистика раздачи

Нет
 
     
 
 
Автор Сообщение

Admin ®

Не в сети

2

VIP пользователь

Пол: Мужской

Стаж: 4 года 1 месяц

Сообщений: 118

Карма: 787

[+]

Провайдер: UzOnline UzOnline

Тарифный план: UNLIME 20 Mbit/sekund

Наличие запрета:



Награды: Нет

[Профиль] ЛС

Создавать темы 07-Янв-2020 00:40

Цитировать

Викинги / Vikings
Премьера: 04 декабрь 2019
Канал, Страна: History (Канада)
Рейтинг IMDb: 8.6
Жанр: Исторический, Драма, Приключенческий
Тип: Викинги
Официальный сайт: http://www.history.ca/vikings/
Год выпуска: 2019-2020
Страна: США
Жанр: боевик, драма, военный, история
Продолжительность: ~ 00:45:00
Режиссер: Йохан Ренк, Киаран Доннелли, Кен Джиротти и др.
Перевод: Профессиональный (многоголосый, закадровый)(LostFilm)
В ролях: Трэвис Фиммел, Клайв Стэнден, Гэбриел Бирн, Кэтрин Уинник, Джессалин Гилсиг, Джордж Благден, Густаф Скарсгард, Торбьорн Харр, Владимир Кулих, Донал Лог, Айван Кэй, Мод Хирст, Эрик Хиггинс, Герард Маккарти, Юко Ахола, Эми Де Брюн, Сэм Смит, Билл Гибсон, Кевин Мюррэй
Описание: История повествует о приключениях величайшего героя своего времени – Рагнара Лодброка. В сериале показан Рагнар со своим племенем братьев-викингов и его семьёй в процессе становления королём всех племён викингов. Рагнар – бесстрашный воин, и религиозный викинг, который объединяет все племена и распространяет среди них поклонение скандинавским богам. Согласно легенде, он – прямой потомок Одина, бога войны и воителей.
Сценарий: Майкл Херст
Композитор: Тревор Моррис
Оператор: П.Дж. Диллон, Джон С. Бартли, Оуэн МакПолин
Продюсер: Джеймс Флинн, Билл Годдар, Майкл Херст, Джон Вебер
Кинокомпания: Irish Film Board, Take 5 Productions, World 2000 Entertainment

Video: MPEG4 Video (H264) 1920x1080 23.976fps [V: h264 high L4.1, yuv420p, 1920x1080 [default]]
Audio: Dolby AC3 48000Hz stereo 384kbps [A: ac3, 48000 Hz, stereo, 384 kb/s [default]]
Audio: Dolby AC3 48000Hz stereo 384kbps [A: ac3, 48000 Hz, stereo, 384 kb/s]

Информация по видеофайлу

General
Unique ID : 241427372962671792996328917761809423594 (0xB5A1387FAFFB2027B1F353F200079CEA)
Complete name : H:\KINO SERIAL COLLECTIONS\Vikings.S06.1080p.rus.LostFilm.TV\Vikings.S06E01.1080p.rus.LostFilm.TV.mkv
Format : Matroska
Format version : Version 4
File size : 2.42 GiB
Duration : 45 min 50 s
Overall bit rate : 7 566 kb/s
Encoded date : UTC 2019-12-06 20:15:05
Writing application : mkvmerge v7.7.0 ('Six Voices') 64bit built on Feb 28 2015 23:39:33
Writing library : libebml v1.3.1 + libmatroska v1.4.2
Video
ID : 1
Format : AVC
Format/Info : Advanced Video Codec
Format profile : High@L4.1
Format settings : CABAC / 4 Ref Frames
Format settings, CABAC : Yes
Format settings, Reference fra : 4 frames
Codec ID : V_MPEG4/ISO/AVC
Duration : 45 min 50 s
Bit rate : 6 800 kb/s
Width : 1 920 pixels
Height : 1 080 pixels
Display aspect ratio : 16:9
Frame rate mode : Constant
Frame rate : 23.976 (24000/1001) FPS
Original frame rate : 23.976 (23976/1000) FPS
Color space : YUV
Chroma subsampling : 4:2:0
Bit depth : 8 bits
Scan type : Progressive
Bits/(Pixel*Frame) : 0.137
Stream size : 2.18 GiB (90%)
Writing library : x264 core 112 r1834 a51816a
Encoding settings : cabac=1 / ref=4 / deblock=1:-3:-2 / analyse=0x3:0x113 / me=hex / subme=7 / psy=1 / psy_rd=1.00:0.00 / mixed_ref=1 / me_range=16 / chroma_me=1 / trellis=1 / 8x8dct=1 / cqm=0 / deadzone=21,11 / fast_pskip=1 / chroma_qp_offset=-2 / threads=12 / sliced_threads=0 / nr=0 / decimate=1 / interlaced=0 / constrained_intra=0 / bframes=5 / b_pyramid=2 / b_adapt=1 / b_bias=0 / direct=1 / weightb=1 / open_gop=0 / weightp=2 / keyint=250 / keyint_min=25 / scenecut=40 / intra_refresh=0 / rc_lookahead=40 / rc=2pass / mbtree=1 / bitrate=6800 / ratetol=1.0 / qcomp=0.60 / qpmin=0 / qpmax=51 / qpstep=4 / cplxblur=20.0 / qblur=0.5 / vbv_maxrate=10000 / vbv_bufsize=256000 / ip_ratio=1.40 / aq=1:1.00 / nal_hrd=none
Default : Yes
Forced : No
Audio #1
ID : 2
Format : AC-3
Format/Info : Audio Coding 3
Commercial name : Dolby Digital
Codec ID : A_AC3
Duration : 45 min 49 s
Bit rate mode : Constant
Bit rate : 384 kb/s
Channel(s) : 2 channels
Channel layout : L R
Sampling rate : 48.0 kHz
Frame rate : 31.250 FPS (1536 SPF)
Bit depth : 16 bits
Compression mode : Lossy
Stream size : 126 MiB (5%)
Service kind : Complete Main
Default : Yes
Forced : No
Audio #2
ID : 3
Format : AC-3
Format/Info : Audio Coding 3
Commercial name : Dolby Digital
Codec ID : A_AC3
Duration : 45 min 50 s
Bit rate mode : Constant
Bit rate : 384 kb/s
Channel(s) : 2 channels
Channel layout : L R
Sampling rate : 48.0 kHz
Frame rate : 31.250 FPS (1536 SPF)
Bit depth : 16 bits
Compression mode : Lossy
Stream size : 126 MiB (5%)
Service kind : Complete Main
Default : No
Forced : No

6 сезон

Статус: Идет
Год: 2019
Количество вышедших серий: 5 (из 20)

Скриншоты

Показать сообщения:    

Текущее время: 11-Июл 02:22

Часовой пояс: UTC - 5



Вы не можете начинать темы
Вы не можете отвечать на сообщения
Вы не можете редактировать свои сообщения
Вы не можете удалять свои сообщения
Вы не можете голосовать в опросах
Вы не можете прикреплять файлы к сообщениям
Вы не можете скачивать файлы