375-modda / Раздел 375 (Статья 375) / Section 375 (Ajay Bahl) [2019, Triller, detektiv,WEB-DLRip]

Статистика раздачи

Скачал: [ 3 ]
 
     
 
 
Автор Сообщение

Ahmadullo2019 ®

Не в сети

5505

Пол: Мужской

Стаж: 7 месяцев 29 дней

Сообщений: 15

Карма: 10

[+]

Провайдер: UzOnline UzOnline

Наличие запрета:



Награды: Нет

[Профиль] ЛС

Создавать темы 09-Янв-2020 01:08

Цитировать

375-modda | Раздел 375 (Статья 375) | Section 375
Chiqqan yili: 2019
Davlat: Hindison
Janr: Triller,detektiv
Davomiyligi: 02:02:53
Tarjima: Professional (Ko'p ovozli) O'zbek tilida
Tarjima 2: Studiya (Bir ovozli kadr ortidan) Rus tilida
Rejissyor: Ajay Bahl
Rollarda: Akshay Xanna, Richa Chadda, Mira Chopra, Rahul Bxat, Krutika Desai, Dibuendu Bxattachariya, Saaxil Chadxa-Tavsif: 2018 yil 8-iyul kuni yosh kostyum dizayneri Anjali Dange Dehli politsiya bo'limiga keldi va taniqli direktorni juda shafqatsiz zo'rlashda aybladi. Ushbu ish darhol jamoatchilikni qiziqtiradi va jiddiy shov-shuvlarga sabab bo'lib, rasmiylarni jabrlanuvchi foydasiga adolatni o'rnatishga chaqiradi. Taniqli advokat Tarun Saluja sudlanuvchini himoya qilishni o'z zimmasiga oladi, ammo bu jarayonda uning sobiq shogirdi Xiral Gandi bilan to'qnashadi, u o'sha paytda hurmatli prokuror bo'lgan. Tomonlar ushbu murakkab vaziyatda haqiqatni ochib berish uchun qattiq kurashmoqda ...-Videoning sifati: WEB-DLRip
Video format: MKV
Video: H264, ~ 2504 Kbit/s, 720x304
Audio: O'zbekcha (AAC, 2 ch, 128 Kbit/s)
Audio 2: Ruscha (AC3, 2 ch, 640 Kbit/s)-Subtitrlar: -

Media Info

General
Unique ID : 180005135457063164848942740404883340595 (0x876BBA619E103ADDF25B3F72E53ABD33)
Complete name : K:\MEDIA\HD MOVIES\TARJIMA HD x264 x265\2019-2020\375-modda.2019.WEB-DLRip.mkv
Format : Matroska
Format version : Version 4
File size : 2.87 GiB
Duration : 2 h 2 min
Overall bit rate : 3 342 kb/s
Encoded date : UTC 2020-01-07 11:14:28
Writing application : mkvmerge v21.0.0 ('Tardigrades Will Inherit The Earth') 64-bit
Writing library : libebml v1.3.5 + libmatroska v1.4.8
Video
ID : 1
Format : AVC
Format/Info : Advanced Video Codec
Format profile : Main@L3
Format settings : CABAC / 3 Ref Frames
Format settings, CABAC : Yes
Format settings, Reference fra : 3 frames
Format settings, GOP : M=1, N=25
Codec ID : V_MPEG4/ISO/AVC
Duration : 2 h 2 min
Bit rate : 2 504 kb/s
Width : 720 pixels
Height : 304 pixels
Display aspect ratio : 2.35:1
Frame rate mode : Constant
Frame rate : 24.000 FPS
Color space : YUV
Chroma subsampling : 4:2:0
Bit depth : 8 bits
Scan type : Progressive
Bits/(Pixel*Frame) : 0.477
Stream size : 2.15 GiB (75%)
Default : Yes
Forced : No
Audio #1
ID : 2
Format : AAC LC
Format/Info : Advanced Audio Codec Low Complexity
Codec ID : A_AAC-2
Duration : 2 h 2 min
Bit rate : 192 kb/s
Channel(s) : 2 channels
Channel layout : L R
Sampling rate : 44.1 kHz
Frame rate : 43.066 FPS (1024 SPF)
Compression mode : Lossy
Stream size : 171 MiB (6%)
Title : UZB(MUAH)
Language : Uzbek
Default : Yes
Forced : Yes
Audio #2
ID : 3
Format : AC-3
Format/Info : Audio Coding 3
Commercial name : Dolby Digital
Codec ID : A_AC3
Duration : 2 h 2 min
Bit rate mode : Constant
Bit rate : 640 kb/s
Channel(s) : 6 channels
Channel layout : L R C LFE Ls Rs
Sampling rate : 48.0 kHz
Frame rate : 31.250 FPS (1536 SPF)
Bit depth : 16 bits
Compression mode : Lossy
Stream size : 563 MiB (19%)
Title : rus
Service kind : Complete Main
Default : No
Forced : No
Text
ID : 4
Format : UTF-8
Codec ID : S_TEXT/UTF8
Codec ID/Info : UTF-8 Plain Text
Duration : 10 s 0 ms
Bit rate : 36 b/s
Count of elements : 1
Stream size : 45.0 Bytes (0%)
Title : reliz
Default : Yes
Forced : Yes

Lavhalar

Показать сообщения:    

Текущее время: 02-Июл 12:02

Часовой пояс: UTC - 5



Вы не можете начинать темы
Вы не можете отвечать на сообщения
Вы не можете редактировать свои сообщения
Вы не можете удалять свои сообщения
Вы не можете голосовать в опросах
Вы не можете прикреплять файлы к сообщениям
Вы не можете скачивать файлы