Gabbar / Габбар вернулся / Gabbar is Back [2015, Jangari,drama,kriminal, BRRip]

Статистика раздачи

Скачал: [ 10 ]
 
     
 
 
Автор Сообщение

Ahmadullo2019 ®

Не в сети

5505

Пол: Мужской

Стаж: 8 месяцев 4 дня

Сообщений: 15

Карма: 10

[+]

Провайдер: UzOnline UzOnline

Наличие запрета:



Награды: Нет

[Профиль] ЛС

Создавать темы 09-Янв-2020 01:37

Цитировать

Gabbar | Габбар вернулся | Gabbar is back
Chiqqan yili: 2015
Davlat: Hindison
Janr: Jangari,drama,kriminal
Davomiyligi: 02:08:19
Tarjima: Professional (Ko'p ovozli) O'zbek tilida
Tarjima 2: Professional Hind tilida
Rejissyor: Radha Krishna Jagarlamudi
Rollarda: Akshay Kumar, Shruti Xassan, Sunil Grover, Suman, Karina Kapur, Ishita Vyas, Shruti Bapna, Jaydip Axlavat, Raj Singx, Arora, Pravina Deshpande, Narendra Jaytli, Chitrangada Singx-Tavsif: Gabbar Singx Rajput o'zining korruptsiyaga qarshi tashkilotini tuzadi, u hayotning barcha sohalaridagi eng korruptsionerlarni yo'q qiladi. Ko'p o'tmay, politsiya va hukumat ushbu tashkilot boshida turgan odamni topish uchun bosim o'tkaza boshlaydi ...-Videoning sifati: BRrip
Video format: MKV
Video: H264, ~ 2486 Kbit/s, 1912x820
Audio: O'zbekcha (AAC, 2 ch, 128 Kbit/s)
Audio 2: Hind (AAC, 2 ch, 128 Kbit/s)-Subtitrlar: -

Media Info

General
Unique ID : 44979641788290164937779771827073499921 (0x21D6C38F00859EAA00C76EDD7416C311)
Complete name : K:\MEDIA\HD MOVIES\TARJIMA HD x264 x265\2019-2020\Gabbar.2015.1080p.BluRay.x264.mkv
Format : Matroska
Format version : Version 4
File size : 2.23 GiB
Duration : 2 h 8 min
Overall bit rate : 2 486 kb/s
Encoded date : UTC 2019-12-31 09:04:38
Writing application : mkvmerge v21.0.0 ('Tardigrades Will Inherit The Earth') 64-bit
Writing library : libebml v1.3.5 + libmatroska v1.4.8
Video
ID : 1
Format : AVC
Format/Info : Advanced Video Codec
Format profile : High@L4.1
Format settings : CABAC / 5 Ref Frames
Format settings, CABAC : Yes
Format settings, Reference fra : 5 frames
Codec ID : V_MPEG4/ISO/AVC
Duration : 2 h 8 min
Bit rate : 1 999 kb/s
Width : 1 912 pixels
Height : 820 pixels
Display aspect ratio : 2.35:1
Frame rate mode : Constant
Frame rate : 24.000 FPS
Color space : YUV
Chroma subsampling : 4:2:0
Bit depth : 8 bits
Scan type : Progressive
Bits/(Pixel*Frame) : 0.053
Stream size : 1.79 GiB (80%)
Writing library : x264 core 146 r2538 121396c
Encoding settings : cabac=1 / ref=5 / deblock=1:-1:-1 / analyse=0x3:0x113 / me=umh / subme=9 / psy=1 / psy_rd=1.00:0.15 / mixed_ref=1 / me_range=24 / chroma_me=1 / trellis=2 / 8x8dct=1 / cqm=0 / deadzone=21,11 / fast_pskip=0 / chroma_qp_offset=-3 / threads=12 / lookahead_threads=1 / sliced_threads=0 / nr=0 / decimate=1 / interlaced=0 / bluray_compat=0 / constrained_intra=0 / bframes=3 / b_pyramid=2 / b_adapt=2 / b_bias=0 / direct=3 / weightb=1 / open_gop=0 / weightp=2 / keyint=240 / keyint_min=24 / scenecut=40 / intra_refresh=0 / rc_lookahead=60 / rc=2pass / mbtree=1 / bitrate=1999 / ratetol=1.0 / qcomp=0.60 / qpmin=0 / qpmax=69 / qpstep=4 / cplxblur=20.0 / qblur=0.5 / vbv_maxrate=31250 / vbv_bufsize=31250 / nal_hrd=none / filler=0 / ip_ratio=1.40 / aq=1:1.00
Default : Yes
Forced : No
Color range : Limited
Color primaries : BT.709
Matrix coefficients : BT.709
Audio #1
ID : 2
Format : AAC LC
Format/Info : Advanced Audio Codec Low Complexity
Codec ID : A_AAC-2
Duration : 2 h 8 min
Bit rate : 192 kb/s
Channel(s) : 2 channels
Channel layout : L R
Sampling rate : 44.1 kHz
Frame rate : 43.066 FPS (1024 SPF)
Compression mode : Lossy
Delay relative to video : -83 ms
Stream size : 179 MiB (8%)
Title : uzb(MuhammadAhmad)
Language : Uzbek
Default : Yes
Forced : Yes
Audio #2
ID : 3
Format : AAC LC
Format/Info : Advanced Audio Codec Low Complexity
Codec ID : A_AAC-2
Duration : 2 h 8 min
Bit rate : 192 kb/s
Channel(s) : 2 channels
Channel layout : L R
Sampling rate : 44.1 kHz
Frame rate : 43.066 FPS (1024 SPF)
Compression mode : Lossy
Delay relative to video : -83 ms
Stream size : 179 MiB (8%)
Language : Uzbek
Default : No
Forced : Yes
Audio #3
ID : 4
Format : AAC LC
Format/Info : Advanced Audio Codec Low Complexity
Codec ID : A_AAC-2
Duration : 2 h 8 min
Bit rate : 93.4 kb/s
Channel(s) : 2 channels
Channel layout : L R
Sampling rate : 48.0 kHz
Frame rate : 46.875 FPS (1024 SPF)
Compression mode : Lossy
Delay relative to video : -83 ms
Stream size : 85.7 MiB (4%)
Default : No
Forced : No
Text #1
ID : 5
Format : UTF-8
Codec ID : S_TEXT/UTF8
Codec ID/Info : UTF-8 Plain Text
Duration : 10 s 0 ms
Bit rate : 36 b/s
Count of elements : 1
Stream size : 45.0 Bytes (0%)
Language : Uzbek
Default : Yes
Forced : Yes
Text #2
ID : 6
Format : UTF-8
Codec ID : S_TEXT/UTF8
Codec ID/Info : UTF-8 Plain Text
Duration : 2 h 5 min
Bit rate : 69 b/s
Count of elements : 2267
Stream size : 64.2 KiB (0%)
Title : english
Default : No
Forced : No

Lavhalar

Показать сообщения:    

Текущее время: 07-Июл 10:50

Часовой пояс: UTC - 5



Вы не можете начинать темы
Вы не можете отвечать на сообщения
Вы не можете редактировать свои сообщения
Вы не можете удалять свои сообщения
Вы не можете голосовать в опросах
Вы не можете прикреплять файлы к сообщениям
Вы не можете скачивать файлы