Регистрация ·
Имя: Пароль:  
· Забыли пароль? · Вопросы от гостей
Круиз по джунглям
Pazl Voice
WEB-DLRip-AVC
Папа Закодировался
Не требуется
WEB-DLRip
Маша
Не требуется
WEBRip
Прячься
iTunes
WEB-DL 1080p
The Ascent
RePack
Action, RPG
Форсаж 9
Чистый звук
WEB-DL 720p
Форсаж 9
Чистый звук
WEB-DLRip
Форсаж 9
Pazl Voice
WEB-DL 1080p
Папа за маму
iTunes
WEB-DLRip
Windows 7/10
Microsoft
7.7.2021
Убойные каникулы
Кураж-Бамбей
BDRip 720p
Уважаемые гости сайта! Добро Пожаловать на наш торрент трекер,где Вы можете бесплатно скачать любой Софт,Фильмы,Музыку и многое другое! А так же постоянно ведется набор модераторов и релизеров. Зарегистрируйтесь сейчас, чтобы получить доступ ко всем функциям. После регистрации или входа на сайт вы сможете создавать темы, отвечать на сообщения и скачивать файлы.

До нового года осталось

Qashqirlar Makoni / Kurtlar vadisi / Долина волков / Серий 1-97 из 97 (Онур Тан, Ражи Шашмаз) [2003 - 2005 гг., Боевик, Криминал, Триллер] 420P

Статистика раздачи
Качаю: [ 1 ]
Сегодня идет свободное скачивание без начисления Download
 
     
 
 
Автор Сообщение

Admin ®

Не в сети

2

VIP пользователь

Пол: Мужской

Стаж: 5 лет 6 месяцев

Сообщений: 171

Карма: 787

[+]

Провайдер: UzOnline UzOnline

Тарифный план: UNLIME 20 Mbit/sekund

Наличие запрета:



Награды: 2 (Подробнее)

Admin (Количество: 1) Авторитет (Количество: 1)
[Профиль] ЛС

Создавать темы 21-Мар-2020 10:09

Цитировать

Qashqirlar Makoni / Kurtlar vadisi / Долина Волков Название: Долина Волков
Оригинальное название: Kurtlar Vadisi
Год: 2003 – 2005 (4 сезона)
Страна: Турция
режиссер: Нил Мандт, Сердар Акар, Мустафа Шевки Доган, ...
сценарий: Раджи Шашмаз, Мехмет Тургут, Ахмет Юрдакул, ...
продюсер: Осман Синав, Раджи Шашмаз, Мехмет Челеби, ...
Оператор: Марк Картер, Селахаттин Санджакли, Тевфик Сенол
Композитор: Гёкхан Кирдар
Художник: Филиз Экинджи, Явуз Фазлиоглу, Гёзде Гирай, ...
Монтаж: Ибрахим Санвер Озджан, Кемалеттин Османли
Жанр: боевик, триллер, драма, криминал, ... слова
Премьера: (мир) 15 января 2003
Продолжительность: 01:30:10 (+,-)
Перевод: Узбек тилида
Качество: WEBRip-AVC
Формат: MP4
Видео: Xvid 352x288 23.976fps 234kbps
Аудио: MP3 44100Hz stereo 128kbps
Долина волков – это многосерийная сага турецкого производителя о преступном мире, в котором постоянно происходит противостояние. В центре сериала показана история криминальной группировки, которая начинала с обычных уличных боев и становится мощной криминальной машиной, которая держит в своих руках контроль над всей Турцией. Главный персонаж сериала Полан Алемдар изменяет свое лицо с помощью пластической операции, делает себе новые документы и начиная с самых низов попадает внутрь криминального мира. Это становится его первым шагом перед долгой и опасной борьбой в Долине Волков.
Для вашего внимания самые первые серии Долины Волков, которые снимались в 2003-2005 году (4 сезона). Уже после этого сезона появились и другие известные, такие как: Долина Волков: Ирак, Долина Волков: Террор, Долина Волков: Западня, Долина Волков: Гладио, Долина Волков: Палестина. Приятного вам просмотра.

Информация по видеофайлу

General
Complete name : H:\KINO SERIAL COLLECTIONS\TURK SERIALLAR\KURTLAR VADISI\Kurtlar Vadisi UZB\1 BO'LIM.AVI
Format : AVI
Format/Info : Audio Video Interleave
File size : 222 MiB
Duration : 1 h 24 min
Overall bit rate : 369 kb/s
Video
ID : 0
Format : MPEG-4 Visual
Format profile : Advanced Simple@L5
Format settings : BVOP2
Format settings, BVOP : 2
Format settings, QPel : No
Format settings, GMC : No warppoints
Format settings, Matrix : Default (H.263)
Muxing mode : Packed bitstream
Codec ID : XVID
Codec ID/Hint : XviD
Duration : 1 h 24 min
Bit rate : 234 kb/s
Width : 352 pixels
Height : 288 pixels
Display aspect ratio : 1.222
Frame rate : 23.976 (24000/1001) FPS
Original frame rate : 25.000 FPS
Color space : YUV
Chroma subsampling : 4:2:0
Bit depth : 8 bits
Scan type : Progressive
Compression mode : Lossy
Bits/(Pixel*Frame) : 0.096
Stream size : 141 MiB (64%)
Writing library : XviD 1.2.0.dev47 (UTC 2006-11-01)
Audio
ID : 1
Format : MPEG Audio
Format version : Version 1
Format profile : Layer 3
Format settings : Joint stereo / MS Stereo
Codec ID : 55
Codec ID/Hint : MP3
Duration : 1 h 24 min
Bit rate mode : Constant
Bit rate : 128 kb/s
Channel(s) : 2 channels
Sampling rate : 44.1 kHz
Compression mode : Lossy
Stream size : 77.2 MiB (35%)
Alignment : Split across interleaves
Interleave, duration : 1000 ms (23.97 video frames)
Interleave, preload duratio : 750 ms

Скриншоты

1

abuwkiy

Не в сети

5643

Пол: Мужской

Стаж: 1 год 7 месяцев

Сообщений: 4

Карма: 0

[+]

Провайдер: TURON-Telecom 

Наличие запрета:



Награды: Нет

[Профиль] ЛС

Создавать темы 11-Апр-2020 21:33 (спустя 21 день)

Цитировать

spasibo

Admin ®

Не в сети

2

VIP пользователь

Пол: Мужской

Стаж: 5 лет 6 месяцев

Сообщений: 171

Карма: 787

[+]

Провайдер: UzOnline UzOnline

Тарифный план: UNLIME 20 Mbit/sekund

Наличие запрета:



Награды: 2 (Подробнее)

Admin (Количество: 1) Авторитет (Количество: 1)
[Профиль] ЛС

Создавать темы 12-Апр-2020 02:07 (спустя 4 часа)

Цитировать

ok
Показать сообщения:    

Текущее время: 05-Дек 17:31

Часовой пояс: UTC - 5



Вы не можете начинать темы
Вы не можете отвечать на сообщения
Вы не можете редактировать свои сообщения
Вы не можете удалять свои сообщения
Вы не можете голосовать в опросах
Вы не можете прикреплять файлы к сообщениям
Вы не можете скачивать файлы