Регистрация ·
Имя: Пароль:  
· Забыли пароль? · Вопросы от гостей
Круиз по джунглям
Pazl Voice
WEB-DLRip-AVC
Папа Закодировался
Не требуется
WEB-DLRip
Маша
Не требуется
WEBRip
Прячься
iTunes
WEB-DL 1080p
The Ascent
RePack
Action, RPG
Форсаж 9
Чистый звук
WEB-DL 720p
Форсаж 9
Чистый звук
WEB-DLRip
Форсаж 9
Pazl Voice
WEB-DL 1080p
Папа за маму
iTunes
WEB-DLRip
Windows 7/10
Microsoft
7.7.2021
Убойные каникулы
Кураж-Бамбей
BDRip 720p
Уважаемые гости сайта! Добро Пожаловать на наш торрент трекер,где Вы можете бесплатно скачать любой Софт,Фильмы,Музыку и многое другое! А так же постоянно ведется набор модераторов и релизеров. Зарегистрируйтесь сейчас, чтобы получить доступ ко всем функциям. После регистрации или входа на сайт вы сможете создавать темы, отвечать на сообщения и скачивать файлы.

До нового года осталось

Kurtlar vadisi / Долина волков / Серий 1-97 из 97 (Онур Тан, Ражи Шашмаз) [2003 - 2005 гг., Боевик, Криминал, Триллер]

Статистика раздачи
Нет
Сегодня идет свободное скачивание без начисления Download
 
     
 
 
Автор Сообщение

Admin ®

Не в сети

2

VIP пользователь

Пол: Мужской

Стаж: 5 лет 6 месяцев

Сообщений: 171

Карма: 787

[+]

Провайдер: UzOnline UzOnline

Тарифный план: UNLIME 20 Mbit/sekund

Наличие запрета:



Награды: 2 (Подробнее)

Admin (Количество: 1) Авторитет (Количество: 1)
[Профиль] ЛС

Создавать темы 23-Мар-2020 04:01

Цитировать

Kurtlar vadisi / Долина Волков Название: Долина Волков
Оригинальное название: Kurtlar Vadisi
Год: 2003 – 2005 (4 сезона)
Страна: Турция
режиссер: Нил Мандт, Сердар Акар, Мустафа Шевки Доган, ...
сценарий: Раджи Шашмаз, Мехмет Тургут, Ахмет Юрдакул, ...
продюсер: Осман Синав, Раджи Шашмаз, Мехмет Челеби, ...
Оператор: Марк Картер, Селахаттин Санджакли, Тевфик Сенол
Композитор: Гёкхан Кирдар
Художник: Филиз Экинджи, Явуз Фазлиоглу, Гёзде Гирай, ...
Монтаж: Ибрахим Санвер Озджан, Кемалеттин Османли
Жанр: боевик, триллер, драма, криминал, ... слова
Премьера: (мир) 15 января 2003
Продолжительность: 01:30:10 (+,-)
Перевод: Отсутствует (Турция)
Качество: WEBRip-AVC
Формат: MP4
Видео: MPEG4 Video (H264) 1280x720 29.97fps 426kbps [V: ISO Media file produced by Google Inc. Created on: 01/14/2019. (h264 main L3.1, yuv420p, 1280x720, 426 kb/s)]
Аудио: AAC 44100Hz stereo 127kbps [A: ISO Media file produced by Google Inc. Created on: 01/14/2019. (aac lc, 44100 Hz, stereo, 127 kb/s)]
Долина волков – это многосерийная сага турецкого производителя о преступном мире, в котором постоянно происходит противостояние. В центре сериала показана история криминальной группировки, которая начинала с обычных уличных боев и становится мощной криминальной машиной, которая держит в своих руках контроль над всей Турцией. Главный персонаж сериала Полан Алемдар изменяет свое лицо с помощью пластической операции, делает себе новые документы и начиная с самых низов попадает внутрь криминального мира. Это становится его первым шагом перед долгой и опасной борьбой в Долине Волков.
Для вашего внимания самые первые серии Долины Волков, которые снимались в 2003-2005 году (4 сезона). Уже после этого сезона появились и другие известные, такие как: Долина Волков: Ирак, Долина Волков: Террор, Долина Волков: Западня, Долина Волков: Гладио, Долина Волков: Палестина. Приятного вам просмотра.

Информация по видеофайлу

General
Complete name : H:\KINO SERIAL COLLECTIONS\TURK SERIALLAR\KURTLAR VADISI\Kurtlar Vadisi Full HD 720p\Kurtlar Vadisi - 1.Bölüm Full HD 720p.mp4
Format : MPEG-4
Format profile : Base Media / Version 2
Codec ID : mp42 (isom/mp42)
File size : 351 MiB
Duration : 1 h 27 min
Overall bit rate mode : Variable
Overall bit rate : 559 kb/s
Encoded date : UTC 2019-01-15 00:06:21
Tagged date : UTC 2019-01-15 00:06:21
gsst : 0
gstd : 5269025
Video
ID : 1
Format : AVC
Format/Info : Advanced Video Codec
Format profile : Main@L3.1
Format settings : CABAC / 3 Ref Frames
Format settings, CABAC : Yes
Format settings, Reference fra : 3 frames
Codec ID : avc1
Codec ID/Info : Advanced Video Coding
Duration : 1 h 27 min
Bit rate : 427 kb/s
Width : 1 280 pixels
Height : 720 pixels
Display aspect ratio : 16:9
Frame rate mode : Constant
Frame rate : 29.970 (30000/1001) FPS
Color space : YUV
Chroma subsampling : 4:2:0
Bit depth : 8 bits
Scan type : Progressive
Bits/(Pixel*Frame) : 0.015
Stream size : 268 MiB (76%)
Title : ISO Media file produced by Google Inc. Created on: 01/14/2019.
Encoded date : UTC 2019-01-15 00:06:21
Tagged date : UTC 2019-01-15 00:06:21
Color range : Limited
Color primaries : BT.709
Transfer characteristics : BT.709
Matrix coefficients : BT.709
Codec configuration box : avcC
Audio
ID : 2
Format : AAC LC
Format/Info : Advanced Audio Codec Low Complexity
Codec ID : mp4a-40-2
Duration : 1 h 27 min
Bit rate mode : Variable
Bit rate : 128 kb/s
Channel(s) : 2 channels
Channel layout : L R
Sampling rate : 44.1 kHz
Frame rate : 43.066 FPS (1024 SPF)
Compression mode : Lossy
Stream size : 80.4 MiB (23%)
Title : ISO Media file produced by Google Inc. Created on: 01/14/2019.
Encoded date : UTC 2019-01-15 00:06:21
Tagged date : UTC 2019-01-15 00:06:21

Скриншоты

Показать сообщения:    

Текущее время: 05-Дек 17:49

Часовой пояс: UTC - 5



Вы не можете начинать темы
Вы не можете отвечать на сообщения
Вы не можете редактировать свои сообщения
Вы не можете удалять свои сообщения
Вы не можете голосовать в опросах
Вы не можете прикреплять файлы к сообщениям
Вы не можете скачивать файлы