Долина волков Западня / Kurtlar vadisi Pusu / Серий 1-300 из 300 (Онур Тан, Ражи Шашмаз) [2007 г., Боевик, Криминал, Триллер, HDTVRip] 720p

Статистика раздачи

Нет
 
     
 
 
Автор Сообщение

Admin ®

Не в сети

2

VIP пользователь

Пол: Мужской

Стаж: 4 года

Сообщений: 118

Карма: 787

[+]

Провайдер: UzOnline UzOnline

Тарифный план: UNLIME 20 Mbit/sekund

Наличие запрета:



Награды: Нет

[Профиль] ЛС

Создавать темы 23-Мар-2020 05:54

Цитировать

Kurtlar vadisi - Pusu / Долина волков - Западня Название: Долина Волков - Западня
Оригинальное название: Kurtlar Vadisi Pusu
Год: 2007 – 2016 (10 сезона)
Страна: Турция
режиссер: Доган Юмит Караджа, Онур Тан, Alican Gebes, ...
сценарий: Озан Аксунгур, Озлем Думлудаг, Волкан Сюмбюль, ...
продюсер: Сади Джанполат, Fahrettin Kayaoglu, Раджи Шашмаз
Оператор: Бекир Топлар, Илкай Исик, Мустафа Кушчу, ...
Композитор: Гёкхан Кирдар
Художник: Толунай Тюркёз, Мехмет Карти, Sakir Günes, ...
Монтаж: Кемалеттин Османли
Жанр: боевик, триллер, драма, приключения, ... слова
Премьера: (мир) 19 апреля 2007
Продолжительность: 01:30:10 (+,-)
Перевод: Русский
Качество: HDTVRip
Формат: AVI
Видео: Xvid 720x400 25fps 1393kbps
Аудио:MP3 44100Hz stereo 191kbps
Долина волков – это многосерийная сага турецкого производителя о преступном мире, в котором постоянно происходит противостояние. В центре сериала показана история криминальной группировки, которая начинала с обычных уличных боев и становится мощной криминальной машиной, которая держит в своих руках контроль над всей Турцией. Главный персонаж сериала Полан Алемдар изменяет свое лицо с помощью пластической операции, делает себе новые документы и начиная с самых низов попадает внутрь криминального мира. Это становится его первым шагом перед долгой и опасной борьбой в Долине Волков.
Для вашего внимания самые первые серии Долины Волков, которые снимались в 2003-2005 году (4 сезона). Уже после этого сезона появились и другие известные, такие как: Долина Волков: Ирак, Долина Волков: Террор, Долина Волков: Западня, Долина Волков: Гладио, Долина Волков: Палестина. Приятного вам просмотра.

Информация по видеофайлу

General
Complete name : H:\Kurtlar Vadisi Pusu RUS\Kurtlar Vadisi Pusu 1. Sezon\01 Kurtlar Vadisi Pusu.avi
Format : AVI
Format/Info : Audio Video Interleave
File size : 956 MiB
Duration : 1 h 23 min
Overall bit rate : 1 595 kb/s
Video
ID : 0
Format : MPEG-4 Visual
Format profile : Advanced Simple@L5
Format settings : BVOP2
Format settings, BVOP : 2
Format settings, QPel : No
Format settings, GMC : No warppoints
Format settings, Matrix : Default (H.263)
Codec ID : XVID
Codec ID/Hint : XviD
Duration : 1 h 23 min
Bit rate : 1 393 kb/s
Width : 720 pixels
Height : 400 pixels
Display aspect ratio : 16:9
Frame rate : 25.000 FPS
Color space : YUV
Chroma subsampling : 4:2:0
Bit depth : 8 bits
Scan type : Progressive
Compression mode : Lossy
Bits/(Pixel*Frame) : 0.193
Stream size : 835 MiB (87%)
Writing library : XviD 73
Audio
ID : 1
Format : MPEG Audio
Format version : Version 1
Format profile : Layer 3
Format settings : Joint stereo
Codec ID : 55
Codec ID/Hint : MP3
Duration : 1 h 23 min
Bit rate mode : Constant
Bit rate : 192 kb/s
Channel(s) : 2 channels
Sampling rate : 44.1 kHz
Compression mode : Lossy
Stream size : 115 MiB (12%)
Alignment : Split accross interleaves
Interleave, duration : 40 ms (1.00 video frame)
Interleave, preload duration : 500 ms

Скриншоты

abuwkiy

Не в сети

5643

Пол: Мужской

Стаж: 1 месяц 24 дня

Сообщений: 3

Карма: 0

[+]

Провайдер: TURON-Telecom 

Наличие запрета:



Награды: Нет

[Профиль] ЛС

Создавать темы 11-Апр-2020 21:53 (спустя 19 дней)

Цитировать

spasibo budu kachat skoro osvobodu jestkiy disk potom nachnu kachat nadeyus razdacha ostaetsa

Admin ®

Не в сети

2

VIP пользователь

Пол: Мужской

Стаж: 4 года

Сообщений: 118

Карма: 787

[+]

Провайдер: UzOnline UzOnline

Тарифный план: UNLIME 20 Mbit/sekund

Наличие запрета:



Награды: Нет

[Профиль] ЛС

Создавать темы 12-Апр-2020 02:08 (спустя 4 часа)

Цитировать

da
bez problem
razdacha 100 %

abuwkiy

Не в сети

5643

Пол: Мужской

Стаж: 1 месяц 24 дня

Сообщений: 3

Карма: 0

[+]

Провайдер: TURON-Telecom 

Наличие запрета:



Награды: Нет

[Профиль] ЛС

Создавать темы 16-Апр-2020 16:00 (спустя 4 дня)

Цитировать

kr97
Показать сообщения:    

Текущее время: 05-Июн 23:38

Часовой пояс: UTC - 5



Вы не можете начинать темы
Вы не можете отвечать на сообщения
Вы не можете редактировать свои сообщения
Вы не можете удалять свои сообщения
Вы не можете голосовать в опросах
Вы не можете прикреплять файлы к сообщениям
Вы не можете скачивать файлы