Бладшот / Bloodshot (Дэйв Уилсон) [2020, Фантастика, боевик, драма, WEB-DL 1080p, P] Line

Статистика раздачи

Скачал: [ 1 ]
 
     
 
 
Автор Сообщение

-InVoKeR- ®

Не в сети

5420

Пол: Мужской

Стаж: 10 месяцев 29 дней

Сообщений: 30

Карма: 5

[+]

Провайдер: UzOnline UzOnline

Наличие запрета:



Награды: Нет

[Профиль] ЛС

Создавать темы 25-Мар-2020 11:12

Цитировать

Бладшот / Bloodshot--
Год выпуска: 2020
Страна: США, Китай
Жанр: Фантастика, боевик, драма
Продолжительность: 01:50:21
Перевод: Дубляж | Чистый звук
Cубтитры: нет-Режиссер: Дэйв Уилсон-В ролях: Вин Дизель, Сэм Хьюэн, Эйса Гонсалес, Гай Пирс, Талула Райли, Тоби Кеббелл, Ламорн Моррис, Йоуханнес Хёйкьюр Йоуханнессон, Сиддхартх Дхананджай, Тайрел Мейер, Алекс Эн-лос-Описание: Корпорация RST возвращает к жизни недавно убитого солдата Рэя Гаррисона. Армия нанороботов в его крови превратила Рэя в бессмертного Бладшота, наделенного сверхчеловеческой силой и способностью мгновенно самоисцеляться. Контролируя тело Рэя, компания влияет на его разум и воспоминания. Но герой пойдет на все, чтобы выяснить правду.-Качество: WEB-DL 1080p
Формат: MKV
Видео: AVC/H.264, 1920x798 (2.40:1), 8068 kbps, 23.976 fps
Аудио: АС3, 2 ch, 48 kHz, 384 Kbps---

MI

General
Unique ID : 197831027687198359962030184091337504780 (0x94D4DEB95063B79B9A5423938032380C)
Complete name : D:\Downloads\Bloodshot.2O2O.D.WEB-DL.1O8Op.mkv
Format : Matroska
Format version : Version 2
File size : 6.51 GiB
Duration : 1 h 50 min
Overall bit rate mode : Variable
Overall bit rate : 8 445 kb/s
Encoded date : UTC 2020-03-24 09:22:06
Writing application : mkvmerge v8.3.0 ('Over the Horizon') 64bit
Writing library : libebml v1.3.1 + libmatroska v1.4.2
Video
ID : 1
Format : AVC
Format/Info : Advanced Video Codec
Format profile : High@L4.1
Format settings : CABAC / 4 Ref Frames
Format settings, CABAC : Yes
Format settings, Reference : 4 frames
Codec ID : V_MPEG4/ISO/AVC
Duration : 1 h 50 min
Bit rate mode : Variable
Bit rate : 8 061 kb/s
Nominal bit rate : 9 000 kb/s
Maximum bit rate : 9 000 kb/s
Width : 1 920 pixels
Height : 798 pixels
Display aspect ratio : 2.40:1
Frame rate mode : Constant
Frame rate : 23.976 (24000/1001) FPS
Standard : Component
Color space : YUV
Chroma subsampling : 4:2:0
Bit depth : 8 bits
Scan type : Progressive
Bits/(Pixel*Frame) : 0.219
Stream size : 6.21 GiB (95%)
Writing library : x264 core 155
Encoding settings : cabac=1 / ref=4 / deblock=1:0:0 / analyse=0x3:0x3 / me=dia / subme=1 / psy=1 / psy_rd=1.00:0.00 / mixed_ref=0 / me_range=16 / chroma_me=1 / trellis=0 / 8x8dct=1 / cqm=1 / deadzone=21,11 / fast_pskip=1 / chroma_qp_offset=0 / threads=24 / lookahead_threads=4 / sliced_threads=0 / slices=1 / nr=0 / decimate=1 / interlaced=0 / minigop=0 / stitchable=1 / constrained_intra=0 / bframes=2 / b_pyramid=0 / b_adapt=0 / b_bias=0 / direct=1 / weightb=1 / open_gop=1 / weightp=0 / keyint=240 / keyint_min=23 / scenecut=40 / intra_refresh=0 / rc_lookahead=0 / rc=cbr / mbtree=0 / bitrate=9000 / ratetol=1.0 / qcomp=0.60 / qpmin=1 / qpmax=69 / qpstep=4 / vbv_maxrate=9000 / vbv_bufsize=9000 / nal_hrd=vbr / filler=0 / ip_ratio=1.40 / pb_ratio=1.30 / aq=1:1.00
Default : Yes
Forced : No
Color range : Limited
Color primaries : BT.709
Transfer characteristics : BT.709
Matrix coefficients : BT.709
Audio
ID : 2
Format : AAC Main
Format/Info : Advanced Audio Codec
Codec ID : A_AAC-1
Duration : 1 h 50 min
Bit rate : 384 kb/s
Channel(s) : 2 channels
Channel layout : L R
Sampling rate : 48.0 kHz
Frame rate : 46.875 FPS (1024 SPF)
Compression mode : Lossy
Stream size : 301 MiB (5%)
Default : Yes
Forced : No
Показать сообщения:    

Текущее время: 05-Июн 23:26

Часовой пояс: UTC - 5



Вы не можете начинать темы
Вы не можете отвечать на сообщения
Вы не можете редактировать свои сообщения
Вы не можете удалять свои сообщения
Вы не можете голосовать в опросах
Вы не можете прикреплять файлы к сообщениям
Вы не можете скачивать файлы