Курьёзы (Андрей Мышкин) [2019, Комедия, мелодрама, WEB-DLRip-AVC] iTunes

Статистика раздачи

Нет
 
     
 
 
Автор Сообщение

NuRKHoNoFF ®

Не в сети

5408

VIP пользователь

Пол: Мужской

Стаж: 1 год

Сообщений: 76

Откуда: Каттакурган

Карма: 1010

[+]

Провайдер: Skyline Skyline

Наличие запрета:



Награды: Нет

[Профиль] ЛС

Создавать темы 27-Апр-2020 06:13

Цитировать

Курьёзы -Год выпуска: 2019
Страна: Россия
Жанр: Комедия, мелодрама
Продолжительность: 01:11:04
Перевод: Русский-Режиссер: Андрей Мышкин-В ролях: Елизавета Арзамасова, Максим Колосов, Лариса Лужина, Максим Аверин, Наталья Гвоздикова, Сергей Варчук, Оксана Сташенко, Анна Андрусенко, Денис Сердюков-Описание: Молодая девушка и юноша, живущие в соседних номерах гостиницы в маленьком российском городке, начинают своё знакомство с бытового конфликта. После их первой встречи происходит цепь случайных событий, которые проверяют их отношения на прочность: опасный полёт на воздушном шаре, предательство на автомойке, эмоциональная пощёчина, наполненная отчаянием, слёзы и неожиданный финал в стенах университета. С каждым новым испытанием их чувства переосмысливаются, переоцениваются и, кажется, уходят, – но каждый раз, будто волшебная птица Феникс, возрождаются с новой силой вопреки обстоятельствам.
- -Качество: WEB-DLRip-AVC
Формат: MKV
Видео: MPEG-4 AVC, ~ 2563 Кбит/с, 1024x432, 24 кадр/с
Аудио: AC3, 2 ch, 192 Кбит/с-

MediaInfo

General
Unique ID : 198889279620883241027915968111986386886 (0x95A0AE9291589A68AAEAE9E843B4A7C6)
Complete name : F:\Kurjezy.(2019).WEB-DLRip.(AVC).by.Серый1779.Files-x.mkv
Format : Matroska
Format version : Version 2
File size : 1.37 GiB
Duration : 1 h 11 min
Overall bit rate : 2 754 kb/s
Encoded date : UTC 2020-04-25 11:17:08
Writing application : mkvmerge v7.8.0 ('River Man') 32bit built on Apr 3 2015 12:11:22
Writing library : libebml v1.3.1 + libmatroska v1.4.2
Video
ID : 1
Format : AVC
Format/Info : Advanced Video Codec
Format profile : High@L4.1
Format settings : CABAC / 9 Ref Frames
Format settings, CABAC : Yes
Format settings, RefFrames : 9 frames
Codec ID : V_MPEG4/ISO/AVC
Duration : 1 h 11 min
Bit rate : 2 563 kb/s
Width : 1 024 pixels
Height : 432 pixels
Display aspect ratio : 2.40:1
Frame rate mode : Constant
Frame rate : 24.000 FPS
Color space : YUV
Chroma subsampling : 4:2:0
Bit depth : 8 bits
Scan type : Progressive
Bits/(Pixel*Frame) : 0.241
Stream size : 1.24 GiB (91%)
Writing library : x264 core 146 r2538 121396c
Encoding settings : cabac=1 / ref=9 / deblock=1:-2:-1 / analyse=0x3:0x133 / me=umh / subme=9 / psy=1 / psy_rd=1.00:0.15 / mixed_ref=1 / me_range=32 / chroma_me=1 / trellis=2 / 8x8dct=1 / cqm=0 / deadzone=21, 11 / fast_pskip=0 / chroma_qp_offset=-3 / threads=18 / lookahead_threads=3 / sliced_threads=0 / nr=0 / decimate=1 / interlaced=0 / bluray_compat=0 / constrained_intra=0 / bframes=9 / b_pyramid=2 / b_adapt=2 / b_bias=0 / direct=3 / weightb=1 / open_gop=0 / weightp=2 / keyint=250 / keyint_min=23 / scenecut=40 / intra_refresh=0 / rc=2pass / mbtree=0 / bitrate=2563 / ratetol=1.0 / qcomp=0.60 / qpmin=0 / qpmax=69 / qpstep=4 / cplxblur=20.0 / qblur=0.5 / ip_ratio=1.40 / pb_ratio=1.30 / aq=2:1.00
Default : Yes
Forced : No
Color range : Limited
Color primaries : BT.709
Transfer characteristics : BT.709
Matrix coefficients : BT.709
Audio
ID : 2
Format : AC-3
Format/Info : Audio Coding 3
Format settings, Endianness : Big
Codec ID : A_AC3
Duration : 1 h 11 min
Bit rate mode : Constant
Bit rate : 192 kb/s
Channel(s) : 2 channels
Channel positions : Front: L R
Sampling rate : 48.0 kHz
Frame rate : 31.250 FPS (1536 SPF)
Bit depth : 16 bits
Compression mode : Lossy
Stream size : 97.6 MiB (7%)
Service kind : Complete Main
Default : Yes
Forced : No

_________________

-746

Создавать темы 27-Апр-2020 06:14 (спустя 1 минута)

Топик был перенесен из форума Фильмы 2011-2018 годов в форум HD-AVC


NuRKHoNoFF
Показать сообщения:    

Текущее время: 06-Июл 06:48

Часовой пояс: UTC - 5



Вы не можете начинать темы
Вы не можете отвечать на сообщения
Вы не можете редактировать свои сообщения
Вы не можете удалять свои сообщения
Вы не можете голосовать в опросах
Вы не можете прикреплять файлы к сообщениям
Вы не можете скачивать файлы