Qutqaruv operatsiyasi / Эвакуация / Extraction (Sam Hargrave) [2020, AQSH, Jangari,triller WEB-Rip 1080p HEVC] O'zbek,rus va ingliz tilida

Статистика раздачи

Качаю: [ 1 ]
Скачал: [ 14 ]
 
     
 
 
Автор Сообщение

Ahmadullo2019 ®

Не в сети

5505

Пол: Мужской

Стаж: 8 месяцев 2 дня

Сообщений: 15

Карма: 10

[+]

Провайдер: UzOnline UzOnline

Наличие запрета:



Награды: Нет

[Профиль] ЛС

Создавать темы 06-Май-2020 20:45

Цитировать

Qutqaruv operatsiyasi / Эвакуация / Extraction
Chiqqan yili: 2020
Davlat: AQSH
Janr: Jangari,triller
Davomiyligi: 01:57:27
Tarjima: Professional (Ko'p ovozli) O'zbek tilida
Tarjima 2: Professional Rus tilida
Tarjima 3: Original Ingliz tilida
Rejissyor: Sem Xargrave
Rollarda: Kris Xemswort, Rudraksha Jaysval, Randip Xud, Xolsifte Faraxani, Devid Xarbor, Pankay Tripati, Priyansha Paynuli, Adam Bessa, Shataf Figar, Suraj Rikam, Neha Mahajan, Sam Xargrave-Tavsif: Yollanma Tayler Reyk xalqaro jinoyatchining o'g'lini ozod qilish uchun tayinlangan. Bola ikki giyohvandlar o'rtasidagi urushning garovidir va u Bangladesh poytaxti Dakka shahrida va dunyodagi eng mustahkam joylardan birida garovga olingan. Bolani qutqarilgunga qadar ancha qurbonlik berishga to'g'ri keladi...-Videoning sifati: Webrip 1080p
Video format: MKV
Video: H265, ~ 2486 Kbit/s, 1920x800
Audio: O'zbek tilida (AAC, 2 ch, 128 Kbit/s)
Audio 2: Rus tilida (Dolby AC3, 6 ch, 384 Kbit/s)
Audio 3: Ingliz tilida (AAC, 6 ch 201 Kbit/s )-Subtitrlar: O'zbek (forced),Ruscha,Inglizcha,Xitoycha,Grekcha,Hindcha,Ukrain,Arab,German,Fransuz,Koreys

Media Info

General
Unique ID : 196676262009725933899594516575937479981 (0x93F678615A04DD246B8C9C38D821C52D)
Complete name : K:\MEDIA\HD MOVIES\TARJIMA HD x264 x265\2019-2020\Qutqaruv.operatsiyasi.2020.1080p.10bit.WEBRip.HEVC.mkv
Format : Matroska
Format version : Version 4
File size : 2.02 GiB
Duration : 1 h 57 min
Overall bit rate : 2 467 kb/s
Movie name : Extraction (2020) | Rip by stalkerok
Encoded date : UTC 2020-05-07 01:14:48
Writing application : mkvmerge v21.0.0 ('Tardigrades Will Inherit The Earth') 64-bit
Writing library : libebml v1.3.5 + libmatroska v1.4.8
Video
ID : 1
Format : HEVC
Format/Info : High Efficiency Video Coding
Format profile : Main 10@L4@Main
Codec ID : V_MPEGH/ISO/HEVC
Duration : 1 h 57 min
Bit rate : 1 683 kb/s
Width : 1 920 pixels
Height : 800 pixels
Display aspect ratio : 2.40:1
Frame rate mode : Constant
Frame rate : 24.000 FPS
Color space : YUV
Chroma subsampling : 4:2:0
Bit depth : 10 bits
Bits/(Pixel*Frame) : 0.046
Stream size : 1.38 GiB (68%)
Default : Yes
Forced : No
Audio #1
ID : 2
Format : AAC LC
Format/Info : Advanced Audio Codec Low Complexity
Codec ID : A_AAC-2
Duration : 1 h 57 min
Bit rate : 192 kb/s
Channel(s) : 2 channels
Channel layout : L R
Sampling rate : 44.1 kHz
Frame rate : 43.066 FPS (1024 SPF)
Compression mode : Lossy
Stream size : 163 MiB (8%)
Title : uzb by MuhammadAhmad
Language : Russian
Default : Yes
Forced : Yes
Audio #2
ID : 3
Format : AC-3
Format/Info : Audio Coding 3
Commercial name : Dolby Digital
Codec ID : A_AC3
Duration : 1 h 57 min
Bit rate mode : Constant
Bit rate : 384 kb/s
Channel(s) : 6 channels
Channel layout : L R C LFE Ls Rs
Sampling rate : 48.0 kHz
Frame rate : 31.250 FPS (1536 SPF)
Bit depth : 16 bits
Compression mode : Lossy
Stream size : 323 MiB (16%)
Language : Russian
Service kind : Complete Main
Default : No
Forced : No
Audio #3
ID : 4
Format : AAC LC SBR
Format/Info : Advanced Audio Codec Low Complexity with Spectral Band Replication
Commercial name : HE-AAC
Format settings : Explicit
Codec ID : A_AAC-2
Duration : 1 h 57 min
Bit rate : 201 kb/s
Channel(s) : 6 channels
Channel layout : C L R Ls Rs LFE
Sampling rate : 48.0 kHz
Frame rate : 23.438 FPS (2048 SPF)
Compression mode : Lossy
Delay relative to video : 23 ms
Stream size : 169 MiB (8%)
Language : English
Default : No
Forced : No
Text #1
ID : 5
Format : UTF-8
Codec ID : S_TEXT/UTF8
Codec ID/Info : UTF-8 Plain Text
Duration : 1 h 55 min
Bit rate : 4 b/s
Count of elements : 179
Stream size : 4.22 KiB (0%)
Title : uzb forced by MUAH
Language : Russian
Default : Yes
Forced : Yes
Text #2
ID : 6
Format : UTF-8
Codec ID : S_TEXT/UTF8
Codec ID/Info : UTF-8 Plain Text
Duration : 1 h 55 min
Bit rate : 7 b/s
Count of elements : 178
Stream size : 6.54 KiB (0%)
Title : Forced
Language : Russian
Default : No
Forced : No
Text #3
ID : 7
Format : UTF-8
Codec ID : S_TEXT/UTF8
Codec ID/Info : UTF-8 Plain Text
Duration : 1 h 55 min
Bit rate : 31 b/s
Count of elements : 675
Stream size : 26.3 KiB (0%)
Language : Russian
Default : No
Forced : No
Text #4
ID : 8
Format : UTF-8
Codec ID : S_TEXT/UTF8
Codec ID/Info : UTF-8 Plain Text
Duration : 1 h 39 min
Bit rate : 34 b/s
Count of elements : 925
Stream size : 24.9 KiB (0%)
Title : English
Language : English
Default : No
Forced : No
Text #5
ID : 9
Format : UTF-8
Codec ID : S_TEXT/UTF8
Codec ID/Info : UTF-8 Plain Text
Duration : 1 h 22 min
Bit rate : 6 b/s
Count of elements : 167
Stream size : 3.83 KiB (0%)
Title : English (FORCED)
Language : English
Default : No
Forced : Yes
Text #6
ID : 10
Format : UTF-8
Codec ID : S_TEXT/UTF8
Codec ID/Info : UTF-8 Plain Text
Duration : 1 h 55 min
Bit rate : 35 b/s
Count of elements : 685
Stream size : 29.6 KiB (0%)
Title : Arabic
Language : Arabic
Default : No
Forced : No
Text #7
ID : 11
Format : UTF-8
Codec ID : S_TEXT/UTF8
Codec ID/Info : UTF-8 Plain Text
Duration : 1 h 55 min
Bit rate : 22 b/s
Count of elements : 681
Stream size : 19.2 KiB (0%)
Title : Chinese Simplified
Language : Chinese
Default : No
Forced : No
Text #8
ID : 12
Format : UTF-8
Codec ID : S_TEXT/UTF8
Codec ID/Info : UTF-8 Plain Text
Duration : 1 h 55 min
Bit rate : 21 b/s
Count of elements : 744
Stream size : 18.5 KiB (0%)
Title : Chinese Traditional
Language : Chinese
Default : No
Forced : No
Text #9
ID : 13
Format : UTF-8
Codec ID : S_TEXT/UTF8
Codec ID/Info : UTF-8 Plain Text
Duration : 1 h 55 min
Bit rate : 19 b/s
Count of elements : 691
Stream size : 16.3 KiB (0%)
Title : Czech
Language : Czech
Default : No
Forced : No
Text #10
ID : 14
Format : UTF-8
Codec ID : S_TEXT/UTF8
Codec ID/Info : UTF-8 Plain Text
Duration : 1 h 55 min
Bit rate : 19 b/s
Count of elements : 673
Stream size : 16.4 KiB (0%)
Title : Danish
Language : Danish
Default : No
Forced : No
Text #11
ID : 15
Format : UTF-8
Codec ID : S_TEXT/UTF8
Codec ID/Info : UTF-8 Plain Text
Duration : 1 h 55 min
Bit rate : 19 b/s
Count of elements : 667
Stream size : 16.2 KiB (0%)
Title : Dutch
Language : Dutch
Default : No
Forced : No
Text #12
ID : 16
Format : UTF-8
Codec ID : S_TEXT/UTF8
Codec ID/Info : UTF-8 Plain Text
Duration : 1 h 55 min
Bit rate : 19 b/s
Count of elements : 674
Stream size : 16.1 KiB (0%)
Title : Finnish
Language : Finnish
Default : No
Forced : No
Text #13
ID : 17
Format : UTF-8
Codec ID : S_TEXT/UTF8
Codec ID/Info : UTF-8 Plain Text
Duration : 1 h 55 min
Bit rate : 20 b/s
Count of elements : 689
Stream size : 17.2 KiB (0%)
Title : French
Language : French
Default : No
Forced : No
Text #14
ID : 18
Format : UTF-8
Codec ID : S_TEXT/UTF8
Codec ID/Info : UTF-8 Plain Text
Duration : 1 h 55 min
Bit rate : 20 b/s
Count of elements : 680
Stream size : 17.6 KiB (0%)
Title : German
Language : German
Default : No
Forced : No
Text #15
ID : 19
Format : UTF-8
Codec ID : S_TEXT/UTF8
Codec ID/Info : UTF-8 Plain Text
Duration : 1 h 55 min
Bit rate : 32 b/s
Count of elements : 699
Stream size : 27.7 KiB (0%)
Title : Greek
Language : Greek
Default : No
Forced : No
Text #16
ID : 20
Format : UTF-8
Codec ID : S_TEXT/UTF8
Codec ID/Info : UTF-8 Plain Text
Duration : 1 h 55 min
Bit rate : 33 b/s
Count of elements : 677
Stream size : 28.1 KiB (0%)
Title : Hebrew
Language : Hebrew
Default : No
Forced : No
Text #17
ID : 21
Format : UTF-8
Codec ID : S_TEXT/UTF8
Codec ID/Info : UTF-8 Plain Text
Duration : 1 h 55 min
Bit rate : 19 b/s
Count of elements : 674
Stream size : 16.2 KiB (0%)
Title : Hungarian
Language : Hungarian
Default : No
Forced : No
Text #18
ID : 22
Format : UTF-8
Codec ID : S_TEXT/UTF8
Codec ID/Info : UTF-8 Plain Text
Duration : 1 h 55 min
Bit rate : 20 b/s
Count of elements : 668
Stream size : 17.1 KiB (0%)
Title : Indonesian
Language : Indonesian
Default : No
Forced : No
Text #19
ID : 23
Format : UTF-8
Codec ID : S_TEXT/UTF8
Codec ID/Info : UTF-8 Plain Text
Duration : 1 h 55 min
Bit rate : 19 b/s
Count of elements : 664
Stream size : 16.8 KiB (0%)
Title : Italian
Language : Italian
Default : No
Forced : No
Text #20
ID : 24
Format : UTF-8
Codec ID : S_TEXT/UTF8
Codec ID/Info : UTF-8 Plain Text
Duration : 1 h 55 min
Bit rate : 20 b/s
Count of elements : 689
Stream size : 17.1 KiB (0%)
Title : Japanese
Language : Japanese
Default : No
Forced : No
Text #21
ID : 25
Format : UTF-8
Codec ID : S_TEXT/UTF8
Codec ID/Info : UTF-8 Plain Text
Duration : 1 h 55 min
Bit rate : 23 b/s
Count of elements : 679
Stream size : 20.0 KiB (0%)
Title : Korean
Language : Korean
Default : No
Forced : No
Text #22
ID : 26
Format : UTF-8
Codec ID : S_TEXT/UTF8
Codec ID/Info : UTF-8 Plain Text
Duration : 1 h 55 min
Bit rate : 18 b/s
Count of elements : 655
Stream size : 16.0 KiB (0%)
Title : Norwegian Bokmal
Language : Norwegian Bokmal
Default : No
Forced : No
Text #23
ID : 27
Format : UTF-8
Codec ID : S_TEXT/UTF8
Codec ID/Info : UTF-8 Plain Text
Duration : 1 h 55 min
Bit rate : 17 b/s
Count of elements : 668
Stream size : 14.5 KiB (0%)
Title : Polish
Language : Polish
Default : No
Forced : No
Text #24
ID : 28
Format : UTF-8
Codec ID : S_TEXT/UTF8
Codec ID/Info : UTF-8 Plain Text
Duration : 1 h 55 min
Bit rate : 20 b/s
Count of elements : 691
Stream size : 17.0 KiB (0%)
Title : Portuguese
Language : Portuguese
Default : No
Forced : No
Text #25
ID : 29
Format : UTF-8
Codec ID : S_TEXT/UTF8
Codec ID/Info : UTF-8 Plain Text
Duration : 1 h 55 min
Bit rate : 19 b/s
Count of elements : 672
Stream size : 16.4 KiB (0%)
Title : Brazilian Portuguese
Language : Portuguese
Default : No
Forced : No
Text #26
ID : 30
Format : UTF-8
Codec ID : S_TEXT/UTF8
Codec ID/Info : UTF-8 Plain Text
Duration : 1 h 55 min
Bit rate : 23 b/s
Count of elements : 687
Stream size : 19.6 KiB (0%)
Title : Romanian
Language : Romanian
Default : No
Forced : No
Text #27
ID : 31
Format : UTF-8
Codec ID : S_TEXT/UTF8
Codec ID/Info : UTF-8 Plain Text
Duration : 1 h 55 min
Bit rate : 31 b/s
Count of elements : 675
Stream size : 26.3 KiB (0%)
Title : Russian
Language : Russian
Default : No
Forced : No
Text #28
ID : 32
Format : UTF-8
Codec ID : S_TEXT/UTF8
Codec ID/Info : UTF-8 Plain Text
Duration : 1 h 55 min
Bit rate : 19 b/s
Count of elements : 697
Stream size : 16.6 KiB (0%)
Title : Spanish
Language : Spanish
Default : No
Forced : No
Text #29
ID : 33
Format : UTF-8
Codec ID : S_TEXT/UTF8
Codec ID/Info : UTF-8 Plain Text
Duration : 1 h 55 min
Bit rate : 20 b/s
Count of elements : 722
Stream size : 17.1 KiB (0%)
Title : European Spanish
Language : Spanish
Default : No
Forced : No
Text #30
ID : 34
Format : UTF-8
Codec ID : S_TEXT/UTF8
Codec ID/Info : UTF-8 Plain Text
Duration : 1 h 55 min
Bit rate : 20 b/s
Count of elements : 620
Stream size : 16.9 KiB (0%)
Title : Swedish
Language : Swedish
Default : No
Forced : No
Text #31
ID : 35
Format : UTF-8
Codec ID : S_TEXT/UTF8
Codec ID/Info : UTF-8 Plain Text
Duration : 1 h 55 min
Bit rate : 51 b/s
Count of elements : 681
Stream size : 43.3 KiB (0%)
Title : Thai
Language : Thai
Default : No
Forced : No
Text #32
ID : 36
Format : UTF-8
Codec ID : S_TEXT/UTF8
Codec ID/Info : UTF-8 Plain Text
Duration : 1 h 55 min
Bit rate : 19 b/s
Count of elements : 661
Stream size : 16.7 KiB (0%)
Title : Turkish
Language : Turkish
Default : No
Forced : No
Text #33
ID : 37
Format : UTF-8
Codec ID : S_TEXT/UTF8
Codec ID/Info : UTF-8 Plain Text
Duration : 1 h 55 min
Bit rate : 28 b/s
Count of elements : 674
Stream size : 24.3 KiB (0%)
Title : Vietnamese
Language : Vietnamese
Default : No
Forced : No

Lavhalar

Показать сообщения:    

Текущее время: 06-Июл 05:55

Часовой пояс: UTC - 5



Вы не можете начинать темы
Вы не можете отвечать на сообщения
Вы не можете редактировать свои сообщения
Вы не можете удалять свои сообщения
Вы не можете голосовать в опросах
Вы не можете прикреплять файлы к сообщениям
Вы не можете скачивать файлы