Викинг Вик / Vic the Viking and the Magic Sword (Эрик Казес / Eric Cazes) [2019, Мультфильм, боевик, комедия, приключения, семейный, WEB-DL 1080p] iTunes

Статистика раздачи

Нет
 
     
 
 
Автор Сообщение

NuRKHoNoFF ®

Не в сети

5408

VIP пользователь

Пол: Мужской

Стаж: 1 год

Сообщений: 76

Откуда: Каттакурган

Карма: 1010

[+]

Провайдер: Skyline Skyline

Наличие запрета:



Награды: Нет

[Профиль] ЛС

Создавать темы 11-Май-2020 16:35

Цитировать

Викинг Вик / Vic the Viking and the Magic Sword -Год выпуска: 2019
Страна: Германия, Франция, Бельгия
Жанр: Мультфильм, боевик, комедия, приключения, семейный
Продолжительность: 01:21:26
Перевод: Дублированный [iTunes]-Режиссер: Эрик Казес / Eric Cazes-В ролях: Деклан Миле-Хауэлл, Давид Шааль, Оуэн Фрост, Виолет Такер Стил, Джон Ченсер, Тим Бентинк, Дэвид Гудж, Роланд Стоун, Эва Сэвэдж, Дитмар Бер-Описание: Юноша по имени Вик, несмотря на свой небольшой рост, всегда мечтал отправиться в дальнее плавание, прямо как его отец - вождь могущественного клана викингов. И вот судьба дает Вику шанс проявить себя, когда его мать попадает в золотой плен бога Локи. Чтобы снять зловещие чары неопытному викингу предстоит отправиться в захватывающее и опасное путешествие к вратам города богов - самому Асгарду.
- -Качество: WEB-DL 1080p
Формат: MKV
Видео: AVC, 4516 Kb/s, 1920x802
Аудио: AC3, 6 ch, 384 Kbps-

MediaInfo

Format: Matroska
Format version: Version 4
File size: 2.79 GiB
Duration: 1 h 21 min
Overall bit rate: 4 903 kb/s
Movie name: ELEKTRI4KA.UNIONGANG
Encoded date: UTC 2020-05-11 19:09:52
Writing application: mkvmerge v41.0.0 ('Smarra') 64-bit
Writing library: libebml v1.3.9 + libmatroska v1.5.2
Cover: Yes
Attachments: cover.jpg
Video
ID: 1
Format: AVC
Format/Info: Advanced Video Codec
Format profile: High@L4
Format settings: CABAC / 5 Ref Frames
Format settings, CABAC: Yes
Format settings, Reference frames: 5 frames
Codec ID: V_MPEG4/ISO/AVC
Duration: 1 h 21 min
Bit rate: 4 516 kb/s
Width: 1 920 pixels
Height: 802 pixels
Display aspect ratio: 2.40:1
Frame rate mode: Constant
Frame rate: 24.000 FPS
Color space: YUV
Chroma subsampling: 4:2:0
Bit depth: 8 bits
Scan type: Progressive
Bits/(Pixel*Frame): 0.122
Stream size: 2.57 GiB (92%)
Title: ELEKTRI4KA.UNIONGANG
Language: English
Default: Yes
Forced: No
Color range: Limited
Color primaries: BT.709
Transfer characteristics: BT.709
Matrix coefficients: BT.709
Audio
ID: 2
Format: AC-3
Format/Info: Audio Coding 3
Commercial name: Dolby Digital
Codec ID: A_AC3
Duration: 1 h 21 min
Bit rate mode: Constant
Bit rate: 384 kb/s
Channel(s): 6 channels
Channel layout: L R C LFE Ls Rs
Sampling rate: 48.0 kHz
Frame rate: 31.250 FPS (1536 SPF)
Compression mode: Lossy
Delay relative to video: -42 ms
Stream size: 224 MiB (8%)
Language: Russian
Service kind: Complete Main
Default: Yes
Forced: No
Text
ID: 3
Format: UTF-8
Codec ID: S_TEXT/UTF8
Codec ID/Info: UTF-8 Plain Text
Duration: 1 h 12 min
Bit rate: 82 b/s
Count of elements: 728
Stream size: 44.3 KiB (0%)
Title: Full
Language: Russian
Default: No
Forced: No

_________________
Показать сообщения:    

Текущее время: 06-Июл 08:12

Часовой пояс: UTC - 5



Вы не можете начинать темы
Вы не можете отвечать на сообщения
Вы не можете редактировать свои сообщения
Вы не можете удалять свои сообщения
Вы не можете голосовать в опросах
Вы не можете прикреплять файлы к сообщениям
Вы не можете скачивать файлы