Spenser adolati / Правосудие Спенсера / Spenser Confidential (Peter Berg) [2020, AQSH, Jinoyat, drama, detektiv, WEB-DLRip-AVC] O'zbek va ingliz tilida

Статистика раздачи

Скачал: [ 4 ]
 
     
 
 
Автор Сообщение

Ahmadullo2019 ®

Не в сети

5505

Пол: Мужской

Стаж: 8 месяцев 3 дня

Сообщений: 15

Карма: 10

[+]

Провайдер: UzOnline UzOnline

Наличие запрета:



Награды: Нет

[Профиль] ЛС

Создавать темы 14-Май-2020 02:59

Цитировать

Spenser adolati / Правосудие Спенсера / Spenser Confidential
Chiqqan yili: 2020
Davlat: AQSH
Janr: Jinoyat, drama, detektiv
Davomiyligi: 01:51:10
Tarjima: Professional (Ko'p ovozli) O'zbek tilida
Tarjima 2: Professional (Original) Ingliz tilida
Rejissyor: Peter Berg
Rollarda: Mark Vahlberg, Kollin Kamp, Alan Arkin, Bokim Vudbayn, Uinston Dyuk, Eliza Shlesinger, Post Malone, Mark Maron, Maykl Gaston, Kessi-Tavsif: Soxta ayblov bilan jazo muddatini o'tab bo'lgach, sobiq Spenser ismli politsiyachi Boston hududini butunlay tark etishga tayyor. Ammo bir ishni oxirga yetkazmoqchi - u eski hamkasblarini o'ldirgan yovuzlarni kuzatib, jazolaydi. Buning uchun bosh qahramon MMA qiruvchi Hevk bilan birlashadi. Birgalikda ular Spenserni qamoqqa yuborgan giyohvand kartellar, iflos politsiyachilar va poraxo'r siyosatchilarning fitnalarini ochishlari kerak.-Videoning sifati: WEB-DLRip-AVC
Video format: MKV
Video: MPEG-4 AVC, 920x460 (2.000), 24.000 fps, ~1445 kbps avg, 0.142 bit/pixel
Audio: O'zbek tilida (AAC, 2 ch, 128 Kbit/s)
Audio 2: Ingliz tilida (Dolby AC3, 6 ch, 384 Kbit/s)-Subtitrlar: Rus va ingliz tilida

Media Info

General
Unique ID : 102607535088652037896504496522583035225 (0x4D317E103353793862F95B14AA1B4D59)
Complete name : K:\MEDIA\HD MOVIES\TARJIMA HD x264 x265\2019-2020\Spenser.adolati.2020.WEB-DLRip-AVC.mkv
Format : Matroska
Format version : Version 4
File size : 1.65 GiB
Duration : 1 h 51 min
Overall bit rate : 2 127 kb/s
Movie name : Правосудие Спенсера (2020) WEB-DLRip-AVC_ivanes
Encoded date : UTC 2020-05-14 07:44:40
Writing application : mkvmerge v21.0.0 ('Tardigrades Will Inherit The Earth') 64-bit
Writing library : libebml v1.3.5 + libmatroska v1.4.8
Cover : Yes
Attachments : cover.jpg
Video
ID : 1
Format : AVC
Format/Info : Advanced Video Codec
Format profile : High@L4.1
Format settings : CABAC / 13 Ref Frames
Format settings, CABAC : Yes
Format settings, Reference fra : 13 frames
Codec ID : V_MPEG4/ISO/AVC
Duration : 1 h 51 min
Bit rate : 1 481 kb/s
Width : 920 pixels
Height : 460 pixels
Display aspect ratio : 2.000
Frame rate mode : Constant
Frame rate : 24.000 FPS
Color space : YUV
Chroma subsampling : 4:2:0
Bit depth : 8 bits
Scan type : Progressive
Bits/(Pixel*Frame) : 0.146
Stream size : 1.15 GiB (70%)
Writing library : x264 core 159 r2991 1771b55
Encoding settings : cabac=1 / ref=13 / deblock=1:-3:-3 / analyse=0x3:0x113 / me=umh / subme=10 / psy=1 / psy_rd=1.00:0.00 / mixed_ref=1 / me_range=32 / chroma_me=1 / trellis=2 / 8x8dct=1 / cqm=0 / deadzone=21,11 / fast_pskip=0 / chroma_qp_offset=-2 / threads=12 / lookahead_threads=3 / sliced_threads=0 / nr=0 / decimate=1 / interlaced=0 / bluray_compat=0 / constrained_intra=0 / bframes=13 / b_pyramid=2 / b_adapt=2 / b_bias=0 / direct=1 / weightb=1 / open_gop=0 / weightp=2 / keyint=240 / keyint_min=24 / scenecut=40 / intra_refresh=0 / rc_lookahead=60 / rc=crf / mbtree=1 / crf=16.9 / qcomp=0.60 / qpmin=0 / qpmax=69 / qpstep=4 / vbv_maxrate=50000 / vbv_bufsize=62500 / crf_max=0.0 / nal_hrd=none / filler=0 / ip_ratio=1.40 / aq=1:1.00
Default : Yes
Forced : No
Audio #1
ID : 2
Format : AAC LC
Format/Info : Advanced Audio Codec Low Complexity
Codec ID : A_AAC-2
Duration : 1 h 51 min
Bit rate : 192 kb/s
Channel(s) : 2 channels
Channel layout : L R
Sampling rate : 44.1 kHz
Frame rate : 43.066 FPS (1024 SPF)
Compression mode : Lossy
Stream size : 155 MiB (9%)
Title : uzb by MuhammadAhmad
Language : Uzbek
Default : Yes
Forced : Yes
Audio #2
ID : 3
Format : AC-3
Format/Info : Audio Coding 3
Commercial name : Dolby Digital
Codec ID : A_AC3
Duration : 1 h 51 min
Bit rate mode : Constant
Bit rate : 448 kb/s
Channel(s) : 6 channels
Channel layout : L R C LFE Ls Rs
Sampling rate : 48.0 kHz
Frame rate : 31.250 FPS (1536 SPF)
Bit depth : 16 bits
Compression mode : Lossy
Stream size : 356 MiB (21%)
Title : Original english
Service kind : Complete Main
Default : No
Forced : No
Text #1
ID : 4
Format : UTF-8
Codec ID : S_TEXT/UTF8
Codec ID/Info : UTF-8 Plain Text
Duration : 20 s 24 ms
Bit rate : 25 b/s
Count of elements : 2
Stream size : 64.0 Bytes (0%)
Language : Russian
Default : Yes
Forced : Yes
Text #2
ID : 5
Format : UTF-8
Codec ID : S_TEXT/UTF8
Codec ID/Info : UTF-8 Plain Text
Duration : 1 h 49 min
Bit rate : 103 b/s
Count of elements : 1606
Stream size : 83.3 KiB (0%)
Title : Full
Language : Russian
Default : No
Forced : No
Text #3
ID : 6
Format : UTF-8
Codec ID : S_TEXT/UTF8
Codec ID/Info : UTF-8 Plain Text
Duration : 1 h 44 min
Bit rate : 78 b/s
Count of elements : 1698
Stream size : 60.3 KiB (0%)
Title : Full
Language : English
Default : No
Forced : No
Text #4
ID : 7
Format : UTF-8
Codec ID : S_TEXT/UTF8
Codec ID/Info : UTF-8 Plain Text
Duration : 1 h 44 min
Bit rate : 88 b/s
Count of elements : 1906
Stream size : 67.7 KiB (0%)
Title : SDH
Language : English
Default : No
Forced : No

Lavhalar

Показать сообщения:    

Текущее время: 06-Июл 08:08

Часовой пояс: UTC - 5



Вы не можете начинать темы
Вы не можете отвечать на сообщения
Вы не можете редактировать свои сообщения
Вы не можете удалять свои сообщения
Вы не можете голосовать в опросах
Вы не можете прикреплять файлы к сообщениям
Вы не можете скачивать файлы