Spenser Adolati / Правосудие Спенсера (Peter Berg) [2020, Jinoyat, drama, detektiv, WEB-Rip 1080p HEVC H265] O'zbek Tilida.

Статистика раздачи

Качаю: [ 2 ]
Скачал: [ 2 ]
 
     
 
 
Автор Сообщение

N.U.R.I.K.B.E.K ®

Не в сети

5417

Пол: Мужской

Стаж: 1 год

Сообщений: 21

Откуда: Jizzax.Paxtakor

Карма: 110

[+]

Провайдер: UzOnline UzOnline

Наличие запрета:



Награды: Нет

[Профиль] ЛС

Создавать темы 14-Май-2020 09:23

Цитировать

Spenser Adolati | Правосудие Спенсера | Spenser Confidential

Год выпуска: 2020
Страна: AQSH
Жанр: Jinoyat, drama, detektiv
Продолжительность: 01:51:10
Перевод: MilliyTV O'zbek Tili--Режиссер: Peter Berg--В ролях: Mark Vahlberg, Kollin Kamp, Alan Arkin, Bokim Vudbayn, Uinston Dyuk, Eliza Shlesinger, Post Malone, Mark Maron, Maykl Gaston, Kessi--Описание: Soxta ayblov bilan jazo muddatini o'tab bo'lgach, sobiq Spenser ismli politsiyachi Boston hududini butunlay tark etishga tayyor. Ammo bir ishni oxirga yetkazmoqchi - u eski hamkasblarini o'ldirgan yovuzlarni kuzatib, jazolaydi. Buning uchun bosh qahramon MMA qiruvchi Hevk bilan birlashadi. Birgalikda ular Spenserni qamoqqa yuborgan giyohvand kartellar, iflos politsiyachilar va poraxo'r siyosatchilarning fitnalarini ochishlari kerak.--Качество видео: WEB-Rip 1080p HEVC
Формат видео: MKV-Видео кодек: H.265
Аудио кодек: MP3--Видео: HEVC 1920x960 24fps 1 737 Kbps
Аудио: MP3 48000Hz stereo 128kbps O'zbek Tili--

MediaInfo

General
Format : Matroska
Format version : Version 4 / Version 2
File size : 1.48 GiB
Duration : 1h 51mn
Overall bit rate : 1 902 Kbps
Movie name : PSArips.com | Spenser.Confidential.2020.1080p.10bit.WEBRip.6CH.x265.HEVC-PSA
Encoded date : UTC 2020-05-14 13:51:43
Writing application : mkvmerge v15.0.0 ('Duel with the Devil') 64-bit
Writing library : libebml v1.3.5 + libmatroska v1.4.5
DURATION : 01:51:10.512000000
NUMBER_OF_FRAMES : 277938
NUMBER_OF_BYTES : 106728192
_STATISTICS_WRITING_APP : mkvmerge v15.0.0 ('Duel with the Devil') 64-bit
_STATISTICS_WRITING_DATE_UTC : 2020-05-14 13:51:43
_STATISTICS_TAGS : BPS DURATION NUMBER_OF_FRAMES NUMBER_OF_BYTES
Video
ID : 1
Format : HEVC
Format/Info : High Efficiency Video Coding
Format profile : Main 10@L4@Main
Codec ID : V_MPEGH/ISO/HEVC
Duration : 1h 51mn
Bit rate : 1 737 Kbps
Width : 1 920 pixels
Height : 960 pixels
Display aspect ratio : 2.000
Frame rate mode : Constant
Frame rate : 24.000 fps
Color space : YUV
Chroma subsampling : 4:2:0
Bit depth : 10 bits
Bits/(Pixel*Frame) : 0.039
Stream size : 1.35 GiB (91%)
Default : Yes
Forced : No
Audio
ID : 2
Format : MPEG Audio
Format version : Version 1
Format profile : Layer 3
Mode : Joint stereo
Mode extension : MS Stereo
Codec ID : A_MPEG/L3
Codec ID/Hint : MP3
Duration : 1h 51mn
Bit rate mode : Constant
Bit rate : 128 Kbps
Channel(s) : 2 channels
Sampling rate : 48.0 KHz
Compression mode : Lossy
Stream size : 102 MiB (7%)
Title : O'zbek Tili
Writing library : LAME3.99.5
Language : Uzbek
Default : Yes
Forced : Yes
LAVHALAR
Показать сообщения:    

Текущее время: 07-Июл 10:08

Часовой пояс: UTC - 5



Вы не можете начинать темы
Вы не можете отвечать на сообщения
Вы не можете редактировать свои сообщения
Вы не можете удалять свои сообщения
Вы не можете голосовать в опросах
Вы не можете прикреплять файлы к сообщениям
Вы не можете скачивать файлы