Hokim / Аким (Nurtas Adambay) [2019, Komediya, WEB-DLRip] O'zbek Tilida.

Статистика раздачи

Качаю: [ 1 ]
Скачал: [ 7 ]
 
     
 
 
Автор Сообщение

N.U.R.I.K.B.E.K ®

Не в сети

5417

Пол: Мужской

Стаж: 11 месяцев

Сообщений: 21

Откуда: Jizzax.Paxtakor

Карма: 110

[+]

Провайдер: UzOnline UzOnline

Наличие запрета:



Награды: Нет

[Профиль] ЛС

Создавать темы 14-Май-2020 13:44

Цитировать

Hokim | Аким
--Год выпуска: 2019
Страна: Qozogʻiston
Жанр: Komediya
Продолжительность: 01:45:50
Перевод: MilliyTV O'zbek Tilida.--Режиссер: Nurtas Adambay--В ролях:
Nurtas Adambay, Gulnaz Jolanova, Jan Bayjanbaev, Gulnora Dusmatova, Qayrat Adilgerey, Ashim Axmetov, Darxan Dayirbek--Описание: Qulay shahar hayotiga ko'nikib qolgan Azamat ismli yosh mayor tasodifan uzoq qishloqda hokim bo'lib ishlashga yuboriladi. Otasi va'da qilgan Nur-Sultonda martaba zinapoyasini ko'tarish uchun yigit avval Taza-Buloq qishlog'ida hokim lavozimida o'tga cho'mishi kerak.--Качество видео: WEB-DLRip
Формат видео: MKV-Видео: Xvid 720x384 25fps 1 615 Kbps
Аудио: MP3 48000Hz stereo 128kbps O'zbek Tili--

MediaInfo

General
Format : Matroska
Format version : Version 4 / Version 2
File size : 1.31 GiB
Duration : 1h 45mn
Overall bit rate : 1 779 Kbps
Encoded date : UTC 2020-05-14 12:10:14
Writing application : mkvmerge v15.0.0 ('Duel with the Devil') 64-bit
Writing library : libebml v1.3.5 + libmatroska v1.4.5
DURATION : 01:45:49.824000000
NUMBER_OF_FRAMES : 264576
NUMBER_OF_BYTES : 101597184
_STATISTICS_WRITING_APP : mkvmerge v15.0.0 ('Duel with the Devil') 64-bit
_STATISTICS_WRITING_DATE_UTC : 2020-05-14 12:10:14
_STATISTICS_TAGS : BPS DURATION NUMBER_OF_FRAMES NUMBER_OF_BYTES
Video
ID : 1
Format : MPEG-4 Visual
Format profile : Advanced Simple@L5
Format settings, BVOP : 1
Format settings, QPel : No
Format settings, GMC : No warppoints
Format settings, Matrix : Custom
Codec ID : V_MS/VFW/FOURCC / XVID
Codec ID/Hint : XviD
Duration : 1h 45mn
Bit rate : 1 615 Kbps
Width : 720 pixels
Height : 384 pixels
Display aspect ratio : 1.85:1
Frame rate mode : Constant
Frame rate : 25.000 fps
Color space : YUV
Chroma subsampling : 4:2:0
Bit depth : 8 bits
Scan type : Progressive
Compression mode : Lossy
Bits/(Pixel*Frame) : 0.234
Stream size : 1.19 GiB (91%)
Writing library : XviD 73
Default : Yes
Forced : No
Audio
ID : 2
Format : MPEG Audio
Format version : Version 1
Format profile : Layer 3
Mode : Joint stereo
Mode extension : MS Stereo
Codec ID : A_MPEG/L3
Codec ID/Hint : MP3
Duration : 1h 45mn
Bit rate mode : Constant
Bit rate : 128 Kbps
Channel(s) : 2 channels
Sampling rate : 48.0 KHz
Compression mode : Lossy
Stream size : 96.9 MiB (7%)
Title : O'zbek Tili
Writing library : LAME3.99.5
Language : Uzbek
Default : Yes
Forced : Yes
LAVHALAR
Показать сообщения:    

Текущее время: 03-Июл 18:25

Часовой пояс: UTC - 5



Вы не можете начинать темы
Вы не можете отвечать на сообщения
Вы не можете редактировать свои сообщения
Вы не можете удалять свои сообщения
Вы не можете голосовать в опросах
Вы не можете прикреплять файлы к сообщениям
Вы не можете скачивать файлы