Qarol / Холоп (Klim Shipenko) [2019, Rossiya, Komediya, WEB-DLRip-AVC]

Статистика раздачи

Скачал: [ 8 ]
 
     
 
 
Автор Сообщение

Ahmadullo2019 ®

Не в сети

5505

Пол: Мужской

Стаж: 8 месяцев 4 дня

Сообщений: 15

Карма: 10

[+]

Провайдер: UzOnline UzOnline

Наличие запрета:



Награды: Нет

[Профиль] ЛС

Создавать темы 14-Май-2020 14:03

Цитировать

Qarol / Холоп
--Chiqqan yili: 2019
Davlat: Rossiya
Janr: Komediya
Davomiyligi: 01:43:55
Tarjima: Professional O'zbek tilida
Tarjima 2: Professional (Original) Rus tilida--Rejissyor: Klim Shipenko--Rollarda: Milosh Bikovich, Aleksandra Bortich, Aleksandr Samoylenko, Ivan Oxlobistin, Mariya Mironova, Oleg Komarov, Olga Dibtseva, Kirill Nagiev, Sergey Sotserdotskiy, Sofiya Zayka--Film Haqida: Yosh mayor Grisha chiroyli hayot kechirib yurardi va unga hamma narsa ruxsat berilgan deb qaror o'ylardi. U juda ko'p ishlarni qildi va endi qamoqqa tushib qolishi mumkin. Umidsiz oligarx o'g'lini tuzatish uchun haddan tashqari choralar ko'rmoqda. Psixolog bilan birgalikda u noyob loyihani taklif qiladi: tashlab qo'yilgan qishloq asosida 19-asrdagi Rossiyaning atmosferasi qayta tiklanadi va Grisha qattiq avariyaga uchraydi va go'yo o'tmishga qaytib qoladi. Darhaqiqat, unda murakkab psixologik tajriba o'tkaziladi.--Videoning sifati: WEB-DLRip-AVC
Video format: MKV-Video: 1108x464 (2,40:1), 25.000 fps, x264 ~1620 kbps avg, 0.126 bit/pixel
Audio: AAC 44000Hz stereo O'zbek tili
Audio 2: AC3 48000Hz 6ch 384kbps Rus tili
Subtitrlar: ---

Media Info

General
Unique ID : 302345670552577473564128393647150456918 (0xE375A875C9C4EF9AA2FD231640C1E056)
Complete name : K:\MEDIA\HD MOVIES\TARJIMA HD x264 x265\2019-2020\Qarol.2019.WEB-DLRip-AVC.mkv
Format : Matroska
Format version : Version 4
File size : 1.60 GiB
Duration : 1 h 43 min
Overall bit rate : 2 201 kb/s
Movie name : [Xolop_2019_All Films_Rutracker_by_Dalemake]
Encoded date : UTC 2020-05-14 18:43:36
Writing application : mkvmerge v21.0.0 ('Tardigrades Will Inherit The Earth') 64-bit
Writing library : libebml v1.3.5 + libmatroska v1.4.8
Video
ID : 1
Format : AVC
Format/Info : Advanced Video Codec
Format profile : High@L4.1
Format settings : CABAC / 11 Ref Frames
Format settings, CABAC : Yes
Format settings, Reference fra : 11 frames
Codec ID : V_MPEG4/ISO/AVC
Duration : 1 h 43 min
Bit rate : 1 620 kb/s
Width : 1 108 pixels
Height : 464 pixels
Display aspect ratio : 2.40:1
Frame rate mode : Constant
Frame rate : 25.000 FPS
Color space : YUV
Chroma subsampling : 4:2:0
Bit depth : 8 bits
Scan type : Progressive
Bits/(Pixel*Frame) : 0.126
Stream size : 1.18 GiB (74%)
Title : [Xolop_2019_All Films_Rutracker_by_Dalemake]
Writing library : x264 core 159 r2991 1771b55
Encoding settings : cabac=1 / ref=11 / deblock=1:-2:-1 / analyse=0x3:0x133 / me=umh / subme=11 / psy=1 / psy_rd=1.00:0.00 / mixed_ref=1 / me_range=24 / chroma_me=1 / trellis=2 / 8x8dct=1 / cqm=0 / deadzone=21,11 / fast_pskip=0 / chroma_qp_offset=-2 / threads=6 / lookahead_threads=1 / sliced_threads=0 / nr=0 / decimate=1 / interlaced=0 / bluray_compat=0 / constrained_intra=0 / bframes=9 / b_pyramid=2 / b_adapt=2 / b_bias=0 / direct=3 / weightb=1 / open_gop=0 / weightp=2 / keyint=240 / keyint_min=24 / scenecut=40 / intra_refresh=0 / rc=2pass / mbtree=0 / bitrate=1620 / ratetol=1.0 / qcomp=0.60 / qpmin=0 / qpmax=69 / qpstep=4 / cplxblur=20.0 / qblur=0.5 / ip_ratio=1.40 / pb_ratio=1.30 / aq=1:1.00
Language : Russian
Default : Yes
Forced : No
Audio #1
ID : 2
Format : AAC LC
Format/Info : Advanced Audio Codec Low Complexity
Codec ID : A_AAC-2
Duration : 1 h 43 min
Bit rate : 192 kb/s
Channel(s) : 2 channels
Channel layout : L R
Sampling rate : 44.1 kHz
Frame rate : 43.066 FPS (1024 SPF)
Compression mode : Lossy
Stream size : 145 MiB (9%)
Title : uzb by MUHAMMADAHMAD
Language : Uzbek
Default : Yes
Forced : Yes
Audio #2
ID : 3
Format : AC-3
Format/Info : Audio Coding 3
Commercial name : Dolby Digital
Codec ID : A_AC3
Duration : 1 h 43 min
Bit rate mode : Constant
Bit rate : 384 kb/s
Channel(s) : 6 channels
Channel layout : L R C LFE Ls Rs
Sampling rate : 48.0 kHz
Frame rate : 31.250 FPS (1536 SPF)
Bit depth : 16 bits
Compression mode : Lossy
Stream size : 285 MiB (17%)
Title : iTunes Russia
Service kind : Complete Main
Default : No
Forced : No
Text
ID : 4
Format : UTF-8
Codec ID : S_TEXT/UTF8
Codec ID/Info : UTF-8 Plain Text
Duration : 20 s 24 ms
Bit rate : 25 b/s
Count of elements : 2
Stream size : 64.0 Bytes (0%)
Language : Uzbek
Default : Yes
Forced : Yes
Menu
00:00:00.000 : en:Глава 1
00:08:23.520 : en:Глава 2
00:16:44.880 : en:Глава 3
00:25:31.520 : en:Глава 4
00:33:46.359 : en:Глава 5
00:42:31.439 : en:Глава 6
00:51:06.198 : en:Глава 7
01:00:10.758 : en:Глава 8
01:08:31.158 : en:Глава 9
01:16:36.357 : en:Глава 10
01:24:44.636 : en:Глава 11
01:32:56.276 : en:Глава 12
LAVHALAR
Показать сообщения:    

Текущее время: 07-Июл 09:35

Часовой пояс: UTC - 5



Вы не можете начинать темы
Вы не можете отвечать на сообщения
Вы не можете редактировать свои сообщения
Вы не можете удалять свои сообщения
Вы не можете голосовать в опросах
Вы не можете прикреплять файлы к сообщениям
Вы не можете скачивать файлы