Fitna / Заговор / Raazi (Megna Gulzar) [2018, Hindiston, Jinoyat,drama,detektiv, 1080p BrRip] O'zbek va hind tilida

Статистика раздачи

Скачал: [ 5 ]
 
     
 
 
Автор Сообщение

Ahmadullo2019 ®

Не в сети

5505

Пол: Мужской

Стаж: 8 месяцев 4 дня

Сообщений: 15

Карма: 10

[+]

Провайдер: UzOnline UzOnline

Наличие запрета:



Награды: Нет

[Профиль] ЛС

Создавать темы 14-Май-2020 14:22

Цитировать

Fitna / Заговор / Raazi
--Chiqqan yili: 2018
Davlat: Hindiston
Janr: Jinoyat,drama,detektiv
Davomiyligi: 02:18:49
Tarjima: Professional O'zbek tilida
Tarjima 2: Professional (Original) Hind tilida--Rejissyor: Megna Gulzar--Rollarda: Aliya Bxatt, Vikki Kaushal, Jaydip Axlavat, Amruta Xanvilkar, Sonya Xrazdan, Rajit Kapur, Sanjay Suri, Shishir Sharma, Orif Zakariya, Kanvaldjit Singx-Film Haqida: Ushbu film 1971 yildagi Hindiston-Pokiston urushi paytida ro'y bergan haqiqiy voqealarga asoslangan. Hind razvedkasi yosh qizni yollaydi, uning dushman hududida jiddiy vazifasi bo'ladi. Ammo u maxfiy topshiriqni bajarish uchun kuch va ruhga ega bo'ladimi?--Videoning sifati: Blu-RayRip 1080p
Video format: MKV-Video: MPEG4 Video (H264) 1920x800 24fps
Audio: AAC 44000Hz stereo O'zbek tili
Audio 2: AAC 48000Hz stereo Rus tili
Subtitrlar: O'zbekcha(forced) va ingliz tilida --

Media Info

General
Unique ID : 112692948180837122234167073449478532945 (0x54C7DF51D2C774E06254462D66392F51)
Complete name : K:\MEDIA\HD MOVIES\TARJIMA HD x264 x265\2019-2020\Fitna.2018.1080p.BluRay.mkv
Format : Matroska
Format version : Version 4
File size : 2.41 GiB
Duration : 2 h 18 min
Overall bit rate : 2 488 kb/s
Encoded date : UTC 2020-05-14 11:02:08
Writing application : mkvmerge v21.0.0 ('Tardigrades Will Inherit The Earth') 64-bit
Writing library : libebml v1.3.5 + libmatroska v1.4.8
Video
ID : 1
Format : AVC
Format/Info : Advanced Video Codec
Format profile : High@L4.1
Format settings : CABAC / 4 Ref Frames
Format settings, CABAC : Yes
Format settings, Reference fra : 4 frames
Codec ID : V_MPEG4/ISO/AVC
Duration : 2 h 18 min
Bit rate : 2 150 kb/s
Width : 1 920 pixels
Height : 800 pixels
Display aspect ratio : 2.40:1
Frame rate mode : Constant
Frame rate : 24.000 FPS
Color space : YUV
Chroma subsampling : 4:2:0
Bit depth : 8 bits
Scan type : Progressive
Bits/(Pixel*Frame) : 0.058
Stream size : 2.08 GiB (86%)
Writing library : x264 core 155
Encoding settings : cabac=1 / ref=4 / deblock=1:-1:-1 / analyse=0x3:0x133 / me=umh / subme=9 / psy=1 / psy_rd=1.00:0.15 / mixed_ref=1 / me_range=24 / chroma_me=1 / trellis=2 / 8x8dct=1 / cqm=0 / deadzone=21,11 / fast_pskip=0 / chroma_qp_offset=-3 / threads=18 / lookahead_threads=1 / sliced_threads=0 / nr=0 / decimate=1 / interlaced=0 / bluray_compat=0 / constrained_intra=0 / bframes=3 / b_pyramid=2 / b_adapt=2 / b_bias=0 / direct=3 / weightb=1 / open_gop=0 / weightp=2 / keyint=250 / keyint_min=23 / scenecut=40 / intra_refresh=0 / rc_lookahead=60 / rc=2pass / mbtree=1 / bitrate=2150 / ratetol=1.0 / qcomp=0.60 / qpmin=0 / qpmax=69 / qpstep=4 / cplxblur=20.0 / qblur=0.5 / vbv_maxrate=31250 / vbv_bufsize=31250 / nal_hrd=none / filler=0 / ip_ratio=1.40 / aq=1:1.00
Default : Yes
Forced : No
Audio #1
ID : 2
Format : AAC LC
Format/Info : Advanced Audio Codec Low Complexity
Codec ID : A_AAC-2
Duration : 2 h 18 min
Bit rate : 192 kb/s
Channel(s) : 2 channels
Channel layout : L R
Sampling rate : 44.1 kHz
Frame rate : 43.066 FPS (1024 SPF)
Compression mode : Lossy
Delay relative to video : -43 ms
Stream size : 193 MiB (8%)
Title : uzb by MUHAMMADAHMAD
Language : Uzbek
Default : Yes
Forced : Yes
Audio #2
ID : 3
Format : AAC LC
Format/Info : Advanced Audio Codec Low Complexity
Codec ID : A_AAC-2
Duration : 2 h 18 min
Bit rate : 141 kb/s
Channel(s) : 2 channels
Channel layout : L R
Sampling rate : 48.0 kHz
Frame rate : 46.875 FPS (1024 SPF)
Compression mode : Lossy
Delay relative to video : -43 ms
Stream size : 140 MiB (6%)
Title : hind
Default : No
Forced : No
Text #1
ID : 4
Format : UTF-8
Codec ID : S_TEXT/UTF8
Codec ID/Info : UTF-8 Plain Text
Duration : 54 min 13 s
Bit rate : 7 b/s
Count of elements : 96
Stream size : 3.06 KiB (0%)
Title : uzb forced
Language : Uzbek
Default : Yes
Forced : Yes
Text #2
ID : 5
Format : UTF-8
Codec ID : S_TEXT/UTF8
Codec ID/Info : UTF-8 Plain Text
Duration : 2 h 8 min
Bit rate : 42 b/s
Count of elements : 1347
Stream size : 40.2 KiB (0%)
Title : english
Default : No
Forced : No
LAVHALAR
Показать сообщения:    

Текущее время: 07-Июл 10:24

Часовой пояс: UTC - 5



Вы не можете начинать темы
Вы не можете отвечать на сообщения
Вы не можете редактировать свои сообщения
Вы не можете удалять свои сообщения
Вы не можете голосовать в опросах
Вы не можете прикреплять файлы к сообщениям
Вы не можете скачивать файлы