Koma / Кома (Nikita Argunov) [2020, Rossiya, Fantastika,jangari, sarguzasht, BDRip-AVC] O'zbek va rus tilida

Статистика раздачи

Качаю: [ 1 ]
Скачал: [ 7 ]
 
     
 
 
Автор Сообщение

Ahmadullo2019 ®

Не в сети

5505

Пол: Мужской

Стаж: 8 месяцев 3 дня

Сообщений: 15

Карма: 10

[+]

Провайдер: UzOnline UzOnline

Наличие запрета:



Награды: Нет

[Профиль] ЛС

Создавать темы 14-Май-2020 14:45

Цитировать

Koma / Кома
--Chiqqan yili: 2020
Davlat: Rossiya
Janr: Fantastika,jangari, sarguzasht
Davomiyligi: 01:50:52
Tarjima: Professional O'zbek tilida
Tarjima 2: Professional (Original) Rus tilida--Rejissyor: Nikita Argunov--Rollarda: Rinal Muxametov, Lyubov Aksenova, Anton Pampushny, Milosh Bikovich, Konstantin Lavronenko, Polina Kuzminskaya, Rostislav Gulbis, Vilen Babichev, Igor Sigaev, Evgeniya Karatigina-Film Haqida: Halokatli voqea sodir bo'lganidan so'ng, yosh, iste'dodli me'mor juda g'alati dunyoga tushib qoladi, faqatgina qisman haqiqatga o'xshaydi. U ushbu bo'shliq qanday qonunlar bilan borligini aniqlashi, hayot uchun kurashishi, muhabbat bilan tanishishi, nihoyat haqiqiy dunyoga chiqish yo'lini topishi va KOMA aslida nima ekanligini anglab, uni yangicha tushunishi kerak.--Videoning sifati: BDrip-AVC
Video format: MKV-Video: MPEG4 Video (H264) 896x376 24fps
Audio: AAC 44000Hz stereo O'zbek tili
Audio 2: Dolby AC3 448 kbit/s Rus tili
Subtitrlar: - --

Media Info

General
Unique ID : 98039504717820508720067934196847674650 (0x49C1B8C706A2370D7123C348D1F5051A)
Complete name : K:\MEDIA\HD MOVIES\TARJIMA HD x264 x265\2019-2020\Koma.2020.BDRip.x264.mkv
Format : Matroska
Format version : Version 4
File size : 1.61 GiB
Duration : 1 h 50 min
Overall bit rate : 2 077 kb/s
Movie name : Кома (2020)
Encoded date : UTC 2020-05-06 00:41:55
Writing application : mkvmerge v21.0.0 ('Tardigrades Will Inherit The Earth') 64-bit
Writing library : libebml v1.3.5 + libmatroska v1.4.8
Cover : Yes
Attachments : cover.jpg
Video
ID : 1
Format : AVC
Format/Info : Advanced Video Codec
Format profile : High@L4.1
Format settings : CABAC / 12 Ref Frames
Format settings, CABAC : Yes
Format settings, Reference fra : 12 frames
Codec ID : V_MPEG4/ISO/AVC
Duration : 1 h 50 min
Bit rate : 1 434 kb/s
Width : 896 pixels
Height : 376 pixels
Display aspect ratio : 2.40:1
Frame rate mode : Constant
Frame rate : 24.000 FPS
Color space : YUV
Chroma subsampling : 4:2:0
Bit depth : 8 bits
Scan type : Progressive
Bits/(Pixel*Frame) : 0.177
Stream size : 1.11 GiB (69%)
Title : #stillet
Writing library : x264 core 152 r2851bm ba24899
Encoding settings : cabac=1 / ref=12 / deblock=1:-3:-3 / analyse=0x3:0x113 / me=umh / subme=11 / psy=1 / psy_rd=1.00:0.15 / mixed_ref=1 / me_range=32 / chroma_me=1 / trellis=2 / 8x8dct=1 / cqm=0 / deadzone=21,11 / fast_pskip=0 / chroma_qp_offset=-3 / threads=8 / lookahead_threads=3 / sliced_threads=0 / nr=0 / decimate=0 / interlaced=0 / bluray_compat=0 / constrained_intra=0 / bframes=12 / b_pyramid=2 / b_adapt=2 / b_bias=0 / direct=3 / weightb=1 / open_gop=0 / weightp=2 / keyint=240 / keyint_min=23 / scenecut=40 / intra_refresh=0 / rc=2pass / mbtree=0 / bitrate=1434 / ratetol=1.0 / qcomp=0.60 / qpmin=0 / qpmax=69 / qpstep=4 / cplxblur=20.0 / qblur=0.5 / ip_ratio=1.40 / pb_ratio=1.30 / aq=1:1.00
Default : Yes
Forced : No
Audio #1
ID : 2
Format : AAC LC
Format/Info : Advanced Audio Codec Low Complexity
Codec ID : A_AAC-2
Duration : 1 h 50 min
Bit rate : 192 kb/s
Channel(s) : 2 channels
Channel layout : L R
Sampling rate : 44.1 kHz
Frame rate : 43.066 FPS (1024 SPF)
Compression mode : Lossy
Stream size : 155 MiB (9%)
Title : uzb by MUAH
Language : Russian
Default : Yes
Forced : Yes
Audio #2
ID : 3
Format : AC-3
Format/Info : Audio Coding 3
Commercial name : Dolby Digital
Codec ID : A_AC3
Duration : 1 h 50 min
Bit rate mode : Constant
Bit rate : 448 kb/s
Channel(s) : 6 channels
Channel layout : L R C LFE Ls Rs
Sampling rate : 48.0 kHz
Frame rate : 31.250 FPS (1536 SPF)
Bit depth : 16 bits
Compression mode : Lossy
Stream size : 355 MiB (22%)
Title : Blu-ray GER
Language : Russian
Service kind : Complete Main
Default : No
Forced : No
Text
ID : 4
Format : UTF-8
Codec ID : S_TEXT/UTF8
Codec ID/Info : UTF-8 Plain Text
Duration : 20 s 24 ms
Bit rate : 25 b/s
Count of elements : 2
Stream size : 64.0 Bytes (0%)
Language : Russian
Default : Yes
Forced : Yes
Menu
00:00:00.000 : de:Глава 01
00:12:43.417 : de:Глава 02
00:18:44.667 : de:Глава 03
00:27:36.375 : de:Глава 04
00:34:27.542 : de:Глава 05
00:44:20.375 : de:Глава 06
00:49:26.500 : de:Глава 07
00:57:33.375 : de:Глава 08
01:05:32.167 : de:Глава 09
01:13:06.083 : de:Глава 10
01:23:10.167 : de:Глава 11
01:29:08.333 : de:Глава 12
01:34:09.667 : de:Глава 13
01:40:00.750 : de:Глава 14
01:43:39.958 : de:Глава 15
01:46:51.042 : de:Глава 16
LAVHALAR
Показать сообщения:    

Текущее время: 06-Июл 07:48

Часовой пояс: UTC - 5



Вы не можете начинать темы
Вы не можете отвечать на сообщения
Вы не можете редактировать свои сообщения
Вы не можете удалять свои сообщения
Вы не можете голосовать в опросах
Вы не можете прикреплять файлы к сообщениям
Вы не можете скачивать файлы