Tipratikon Sonik / Соник в кино / Sonic The Hedgehog (Jeff Fouller) [2020, Ilmiy, fantastika, komediya, sarguzasht, oilaviy, BDRip 1080p, HEVC 10bit] O'zbek tilida by #Maksadjon_17

Статистика раздачи

Качаю: [ 1 ]
Скачал: [ 2 ]
 
     
 
 
Автор Сообщение

#Maksadjon_17 ®

Не в сети

5497

Пол: Мужской

Стаж: 8 месяцев 6 дней

Сообщений: 13

Карма: 20

[+]

Провайдер: UzOnline UzOnline

Наличие запрета:



Награды: Нет

[Профиль] ЛС

Создавать темы 15-Май-2020 23:42

Цитировать

Tipratikon Sonik / Соник в кино / Sonic The Hedgehog
--Chiqqan yili: 2020
Davlat: AQSh, Yaponiya, Kanada
Janr: Ilmiy fantastika, komediya, sarguzasht, oilaviy
Davomiyligi: 01:38:53
Tarjima: Professional (dublyaj qilingan) Uzbek tilida
Tarjima 2: Professional (dublyaj qilingan) Ingliz tilida-Rejissyor: Jeff Fouller-Rollarni ovozlashtirganlar: Jeyms Marsden, Ben Shvarts, Natasha Rotvell, Tika Sumpter, Neil MakDonough, Adam Pally, Jim Kerri, Li Majdub, Tom Butler, Frank Seynner-Tavsif: Dunyo qahramonni kutayotgan edi va tipratikan paydo bo'ldi. Yuqori tezlik bilan yugurish qobiliyatiga ega Sonic Yerni qutqarishi va yovuz Doktor Robotnikning dunyo ustidan hukmronlik qilishiga yo'l qo'ymasligi kerak.-Videoning sifati: BDRip 1080p HEVC 10bit
Video format: MKV
Video: HEVC x265, 1920 x 804 (2.388) 23.976 fps, 4 822 kbps
Audio: AAC, 48.0 kHz, 2 ch, 196 kbps, Uzbek
Audio 2: AAC, 48.0 kHz, 8 ch, 576 kbps, English
Audio 3: AAC, 48.0 kHz, 2 ch, 66.2 kbps, Commentary English-

Subtitrlar

Text #1
ID : 5
Format : VobSub
Muxing mode : zlib
Codec ID : S_VOBSUB
Codec ID/Info : Picture based subtitle format used on DVDs
Duration : 1 h 32 min
Bit rate : 13.0 kb/s
Count of elements : 1592
Stream size : 8.61 MiB (0%)
Language : English
Default : No
Forced : No
Text #2
ID : 6
Format : VobSub
Muxing mode : zlib
Codec ID : S_VOBSUB
Codec ID/Info : Picture based subtitle format used on DVDs
Duration : 1 h 38 min
Bit rate : 20.3 kb/s
Count of elements : 2004
Stream size : 14.3 MiB (0%)
Title : Commentary
Language : English
Default : No
Forced : No
Text #3
ID : 7
Format : VobSub
Muxing mode : zlib
Codec ID : S_VOBSUB
Codec ID/Info : Picture based subtitle format used on DVDs
Duration : 1 h 37 min
Bit rate : 8 969 b/s
Count of elements : 1256
Stream size : 6.26 MiB (0%)
Language : Danish
Default : No
Forced : No
Text #4
ID : 8
Format : VobSub
Muxing mode : zlib
Codec ID : S_VOBSUB
Codec ID/Info : Picture based subtitle format used on DVDs
Duration : 1 h 37 min
Bit rate : 8 566 b/s
Count of elements : 1233
Stream size : 5.98 MiB (0%)
Language : Dutch
Default : No
Forced : No
Text #5
ID : 9
Format : VobSub
Muxing mode : zlib
Codec ID : S_VOBSUB
Codec ID/Info : Picture based subtitle format used on DVDs
Duration : 1 h 37 min
Bit rate : 9 036 b/s
Count of elements : 1309
Stream size : 6.31 MiB (0%)
Language : Finnish
Default : No
Forced : No
Text #6
ID : 10
Format : VobSub
Muxing mode : zlib
Codec ID : S_VOBSUB
Codec ID/Info : Picture based subtitle format used on DVDs
Duration : 1 h 37 min
Bit rate : 8 119 b/s
Count of elements : 1234
Stream size : 5.67 MiB (0%)
Language : French
Default : No
Forced : No
Text #7
ID : 11
Format : VobSub
Muxing mode : zlib
Codec ID : S_VOBSUB
Codec ID/Info : Picture based subtitle format used on DVDs
Duration : 1 h 38 min
Bit rate : 16.4 kb/s
Count of elements : 1978
Stream size : 11.6 MiB (0%)
Title : Commentary
Language : French
Default : No
Forced : No
Text #8
ID : 12
Format : VobSub
Muxing mode : zlib
Codec ID : S_VOBSUB
Codec ID/Info : Picture based subtitle format used on DVDs
Duration : 1 h 37 min
Bit rate : 9 722 b/s
Count of elements : 1286
Stream size : 6.79 MiB (0%)
Language : Italian
Default : No
Forced : No
Text #9
ID : 13
Format : VobSub
Muxing mode : zlib
Codec ID : S_VOBSUB
Codec ID/Info : Picture based subtitle format used on DVDs
Duration : 1 h 38 min
Bit rate : 16.1 kb/s
Count of elements : 1996
Stream size : 11.4 MiB (0%)
Title : Commentary
Language : Italian
Default : No
Forced : No
Text #10
ID : 14
Format : VobSub
Muxing mode : zlib
Codec ID : S_VOBSUB
Codec ID/Info : Picture based subtitle format used on DVDs
Duration : 1 h 37 min
Bit rate : 8 563 b/s
Count of elements : 1292
Stream size : 5.98 MiB (0%)
Language : Norwegian Bokmal
Default : No
Forced : No
Text #11
ID : 15
Format : VobSub
Muxing mode : zlib
Codec ID : S_VOBSUB
Codec ID/Info : Picture based subtitle format used on DVDs
Duration : 1 h 37 min
Bit rate : 8 972 b/s
Count of elements : 1255
Stream size : 6.27 MiB (0%)
Language : Portuguese
Default : No
Forced : No
Text #12
ID : 16
Format : VobSub
Muxing mode : zlib
Codec ID : S_VOBSUB
Codec ID/Info : Picture based subtitle format used on DVDs
Duration : 1 h 38 min
Bit rate : 16.0 kb/s
Count of elements : 1873
Stream size : 11.3 MiB (0%)
Title : Commentary
Language : Portuguese
Default : No
Forced : No
Text #13
ID : 17
Format : VobSub
Muxing mode : zlib
Codec ID : S_VOBSUB
Codec ID/Info : Picture based subtitle format used on DVDs
Duration : 1 h 37 min
Bit rate : 9 523 b/s
Count of elements : 1264
Stream size : 6.65 MiB (0%)
Language : Spanish
Default : No
Forced : No
Text #14
ID : 18
Format : VobSub
Muxing mode : zlib
Codec ID : S_VOBSUB
Codec ID/Info : Picture based subtitle format used on DVDs
Duration : 1 h 38 min
Bit rate : 17.6 kb/s
Count of elements : 1969
Stream size : 12.5 MiB (0%)
Title : Commentary
Language : Spanish
Default : No
Forced : No
Text #15
ID : 19
Format : VobSub
Muxing mode : zlib
Codec ID : S_VOBSUB
Codec ID/Info : Picture based subtitle format used on DVDs
Duration : 1 h 37 min
Bit rate : 8 942 b/s
Count of elements : 1289
Stream size : 6.25 MiB (0%)
Language : Swedish
Default : No
Forced : No

Media Info

General
Unique ID : 82981701745726049427485312858944816595 (0x3E6DB1C5B1D251CC43BFD40A20C1C5D3)
Complete name : J:\Sonic the Hedgehog (2020) (1080p BluRay x265 10bit) O'zbek tilida.mkv
Format : Matroska
Format version : Version 4
File size : 3.99 GiB
Duration : 1 h 38 min
Overall bit rate : 5 771 kb/s
Encoded date : UTC 2020-05-14 07:05:44
Writing application : mkvmerge v38.0.0 ('The Silent Type') 64-bit
Writing library : libebml v1.3.9 + libmatroska v1.5.2
Video
ID : 1
Format : HEVC
Format/Info : High Efficiency Video Coding
Format profile : Main 10@L4@Main
Codec ID : V_MPEGH/ISO/HEVC
Duration : 1 h 38 min
Bit rate : 4 822 kb/s
Width : 1 920 pixels
Height : 804 pixels
Display aspect ratio : 2.40:1
Frame rate mode : Constant
Frame rate : 23.976 (24000/1001) FPS
Color space : YUV
Chroma subsampling : 4:2:0
Bit depth : 10 bits
Bits/(Pixel*Frame) : 0.130
Stream size : 3.33 GiB (84%)
Writing library : x265 3.2+23-52135ffd9bcd:[Windows][GCC 9.2.0][64 bit] 10bit
Encoding settings : cpuid=1111039 / frame-threads=3 / numa-pools=8 / wpp / no-pmode / no-pme / no-psnr / no-ssim / log-level=2 / input-csp=1 / input-res=1920x804 / interlace=0 / total-frames=142252 / level-idc=0 / high-tier=1 / uhd-bd=0 / ref=4 / no-allow-non-conformance / no-repeat-headers / annexb / no-aud / no-hrd / info / hash=0 / no-temporal-layers / open-gop / min-keyint=23 / keyint=250 / gop-lookahead=0 / bframes=8 / b-adapt=2 / b-pyramid / bframe-bias=0 / rc-lookahead=25 / lookahead-slices=4 / scenecut=40 / hist-scenecut=0 / radl=0 / no-splice / no-intra-refresh / ctu=64 / min-cu-size=8 / rect / no-amp / max-tu-size=32 / tu-inter-depth=1 / tu-intra-depth=1 / limit-tu=0 / rdoq-level=2 / dynamic-rd=0.00 / no-ssim-rd / signhide / no-tskip / nr-intra=0 / nr-inter=0 / no-constrained-intra / strong-intra-smoothing / max-merge=3 / limit-refs=3 / limit-modes / me=3 / subme=3 / merange=57 / temporal-mvp / no-frame-dup / no-hme / weightp / no-weightb / no-analyze-src-pics / deblock=0:0 / no-sao / no-sao-non-deblock / rd=4 / selective-sao=0 / no-early-skip / rskip / no-fast-intra / no-tskip-fast / no-cu-lossless / no-b-intra / no-splitrd-skip / rdpenalty=0 / psy-rd=2.00 / psy-rdoq=1.00 / no-rd-refine / no-lossless / cbqpoffs=0 / crqpoffs=0 / rc=crf / crf=18.0 / qcomp=0.60 / qpstep=4 / stats-write=0 / stats-read=0 / ipratio=1.40 / pbratio=1.30 / aq-mode=3 / aq-strength=1.00 / cutree / zone-count=0 / no-strict-cbr / qg-size=32 / no-rc-grain / qpmax=69 / qpmin=0 / no-const-vbv / sar=0 / overscan=0 / videoformat=5 / range=0 / colorprim=2 / transfer=2 / colormatrix=2 / chromaloc=0 / display-window=0 / cll=0,0 / min-luma=0 / max-luma=1023 / log2-max-poc-lsb=8 / vui-timing-info / vui-hrd-info / slices=1 / no-opt-qp-pps / no-opt-ref-list-length-pps / no-multi-pass-opt-rps / scenecut-bias=0.05 / hist-threshold=0.01 / no-opt-cu-delta-qp / aq-motion / no-hdr / no-hdr-opt / no-dhdr10-opt / no-idr-recovery-sei / analysis-reuse-level=5 / scale-factor=0 / refine-intra=0 / refine-inter=0 / refine-mv=1 / refine-ctu-distortion=0 / no-limit-sao / ctu-info=0 / no-lowpass-dct / refine-analysis-type=0 / copy-pic=1 / max-ausize-factor=1.0 / no-dynamic-refine / no-single-sei / no-hevc-aq / no-svt / no-field / qp-adaptation-range=1.00 / no-scenecut-aware-qp
Default : Yes
Forced : No
Audio #1
ID : 2
Format : AAC LC
Format/Info : Advanced Audio Codec Low Complexity
Codec ID : A_AAC-2
Duration : 1 h 38 min
Bit rate : 196 kb/s
Channel(s) : 2 channels
Channel layout : L R
Sampling rate : 48.0 kHz
Frame rate : 46.875 FPS (1024 SPF)
Compression mode : Lossy
Stream size : 139 MiB (3%)
Title : Uzbek
Language : Uzbek
Default : Yes
Forced : Yes
Audio #2
ID : 3
Format : AAC LC
Format/Info : Advanced Audio Codec Low Complexity
Codec ID : A_AAC-2
Duration : 1 h 38 min
Bit rate : 576 kb/s
Channel(s) : 8 channels
Channel layout : C L R Ls Rs Lb Rb LFE
Sampling rate : 48.0 kHz
Frame rate : 46.875 FPS (1024 SPF)
Compression mode : Lossy
Delay relative to video : 20 ms
Stream size : 405 MiB (10%)
Title : English
Language : English
Default : No
Forced : No
Audio #3
ID : 4
Format : AAC LC SBR
Format/Info : Advanced Audio Codec Low Complexity with Spectral Band Replication
Commercial name : HE-AAC
Format settings : Explicit
Codec ID : A_AAC-2
Duration : 1 h 38 min
Bit rate : 66.2 kb/s
Channel(s) : 2 channels
Channel layout : L R
Sampling rate : 48.0 kHz
Frame rate : 23.438 FPS (2048 SPF)
Compression mode : Lossy
Delay relative to video : 40 ms
Stream size : 46.5 MiB (1%)
Title : Commentary
Language : English
Default : No
Forced : No
Text #1
ID : 5
Format : VobSub
Muxing mode : zlib
Codec ID : S_VOBSUB
Codec ID/Info : Picture based subtitle format used on DVDs
Duration : 1 h 32 min
Bit rate : 13.0 kb/s
Count of elements : 1592
Stream size : 8.61 MiB (0%)
Language : English
Default : No
Forced : No
Text #2
ID : 6
Format : VobSub
Muxing mode : zlib
Codec ID : S_VOBSUB
Codec ID/Info : Picture based subtitle format used on DVDs
Duration : 1 h 38 min
Bit rate : 20.3 kb/s
Count of elements : 2004
Stream size : 14.3 MiB (0%)
Title : Commentary
Language : English
Default : No
Forced : No
Text #3
ID : 7
Format : VobSub
Muxing mode : zlib
Codec ID : S_VOBSUB
Codec ID/Info : Picture based subtitle format used on DVDs
Duration : 1 h 37 min
Bit rate : 8 969 b/s
Count of elements : 1256
Stream size : 6.26 MiB (0%)
Language : Danish
Default : No
Forced : No
Text #4
ID : 8
Format : VobSub
Muxing mode : zlib
Codec ID : S_VOBSUB
Codec ID/Info : Picture based subtitle format used on DVDs
Duration : 1 h 37 min
Bit rate : 8 566 b/s
Count of elements : 1233
Stream size : 5.98 MiB (0%)
Language : Dutch
Default : No
Forced : No
Text #5
ID : 9
Format : VobSub
Muxing mode : zlib
Codec ID : S_VOBSUB
Codec ID/Info : Picture based subtitle format used on DVDs
Duration : 1 h 37 min
Bit rate : 9 036 b/s
Count of elements : 1309
Stream size : 6.31 MiB (0%)
Language : Finnish
Default : No
Forced : No
Text #6
ID : 10
Format : VobSub
Muxing mode : zlib
Codec ID : S_VOBSUB
Codec ID/Info : Picture based subtitle format used on DVDs
Duration : 1 h 37 min
Bit rate : 8 119 b/s
Count of elements : 1234
Stream size : 5.67 MiB (0%)
Language : French
Default : No
Forced : No
Text #7
ID : 11
Format : VobSub
Muxing mode : zlib
Codec ID : S_VOBSUB
Codec ID/Info : Picture based subtitle format used on DVDs
Duration : 1 h 38 min
Bit rate : 16.4 kb/s
Count of elements : 1978
Stream size : 11.6 MiB (0%)
Title : Commentary
Language : French
Default : No
Forced : No
Text #8
ID : 12
Format : VobSub
Muxing mode : zlib
Codec ID : S_VOBSUB
Codec ID/Info : Picture based subtitle format used on DVDs
Duration : 1 h 37 min
Bit rate : 9 722 b/s
Count of elements : 1286
Stream size : 6.79 MiB (0%)
Language : Italian
Default : No
Forced : No
Text #9
ID : 13
Format : VobSub
Muxing mode : zlib
Codec ID : S_VOBSUB
Codec ID/Info : Picture based subtitle format used on DVDs
Duration : 1 h 38 min
Bit rate : 16.1 kb/s
Count of elements : 1996
Stream size : 11.4 MiB (0%)
Title : Commentary
Language : Italian
Default : No
Forced : No
Text #10
ID : 14
Format : VobSub
Muxing mode : zlib
Codec ID : S_VOBSUB
Codec ID/Info : Picture based subtitle format used on DVDs
Duration : 1 h 37 min
Bit rate : 8 563 b/s
Count of elements : 1292
Stream size : 5.98 MiB (0%)
Language : Norwegian Bokmal
Default : No
Forced : No
Text #11
ID : 15
Format : VobSub
Muxing mode : zlib
Codec ID : S_VOBSUB
Codec ID/Info : Picture based subtitle format used on DVDs
Duration : 1 h 37 min
Bit rate : 8 972 b/s
Count of elements : 1255
Stream size : 6.27 MiB (0%)
Language : Portuguese
Default : No
Forced : No
Text #12
ID : 16
Format : VobSub
Muxing mode : zlib
Codec ID : S_VOBSUB
Codec ID/Info : Picture based subtitle format used on DVDs
Duration : 1 h 38 min
Bit rate : 16.0 kb/s
Count of elements : 1873
Stream size : 11.3 MiB (0%)
Title : Commentary
Language : Portuguese
Default : No
Forced : No
Text #13
ID : 17
Format : VobSub
Muxing mode : zlib
Codec ID : S_VOBSUB
Codec ID/Info : Picture based subtitle format used on DVDs
Duration : 1 h 37 min
Bit rate : 9 523 b/s
Count of elements : 1264
Stream size : 6.65 MiB (0%)
Language : Spanish
Default : No
Forced : No
Text #14
ID : 18
Format : VobSub
Muxing mode : zlib
Codec ID : S_VOBSUB
Codec ID/Info : Picture based subtitle format used on DVDs
Duration : 1 h 38 min
Bit rate : 17.6 kb/s
Count of elements : 1969
Stream size : 12.5 MiB (0%)
Title : Commentary
Language : Spanish
Default : No
Forced : No
Text #15
ID : 19
Format : VobSub
Muxing mode : zlib
Codec ID : S_VOBSUB
Codec ID/Info : Picture based subtitle format used on DVDs
Duration : 1 h 37 min
Bit rate : 8 942 b/s
Count of elements : 1289
Stream size : 6.25 MiB (0%)
Language : Swedish
Default : No
Forced : No
Menu
00:00:00.000 : en:Chapter 01
00:03:52.190 : en:Chapter 02
00:09:32.989 : en:Chapter 03
00:12:45.973 : en:Chapter 04
00:18:09.421 : en:Chapter 05
00:22:20.797 : en:Chapter 06
00:27:33.693 : en:Chapter 07
00:35:09.107 : en:Chapter 08
00:41:37.328 : en:Chapter 09
00:51:24.623 : en:Chapter 10
01:01:04.827 : en:Chapter 11
01:04:38.374 : en:Chapter 12
01:10:20.341 : en:Chapter 13
01:18:54.020 : en:Chapter 14
01:25:38.716 : en:Chapter 15
01:30:27.296 : en:Chapter 16

Lavhalar



Последний раз редактировалось: #Maksadjon_17 (2020-05-16 08:14), всего редактировалось 2 раз(а)
Показать сообщения:    

Текущее время: 06-Июл 08:09

Часовой пояс: UTC - 5



Вы не можете начинать темы
Вы не можете отвечать на сообщения
Вы не можете редактировать свои сообщения
Вы не можете удалять свои сообщения
Вы не можете голосовать в опросах
Вы не можете прикреплять файлы к сообщениям
Вы не можете скачивать файлы