Marvels Runaways 1,2,3 seasons / Беглецы 1-2-3 Сезон / 1-33 Серий из 33 LostFilm.TV [1080p] (2017-2019) WEBRip

Статистика раздачи

Нет
 
     
 
 
Автор Сообщение

Admin ®

Не в сети

2

VIP пользователь

Пол: Мужской

Стаж: 4 года 1 месяц

Сообщений: 118

Карма: 787

[+]

Провайдер: UzOnline UzOnline

Тарифный план: UNLIME 20 Mbit/sekund

Наличие запрета:



Награды: Нет

[Профиль] ЛС

Создавать темы 19-Май-2020 19:56

Цитировать

Marvels Runaways / Беглецы
Страна: США
Год создания: 2017-2019
Производство студии: ABC Studios, Disney-ABC Domestic Television, Hulu, Marvel Studios Inc., Marvel Television, Walt Disney Television
Категория / Жанр: драма, фантастика, боевик
Режиссер: Джереми Уэбб, Рэмси Никелл
Сценарий: Стефани Сэвадж
Продюсер: Emma Fleischer, Лизабет Ровиньский
Оператор: Дэйв Перкаль
Композитор: Сиддхарта Кхосла
В фильме снимались: Кевин Уайзман, Рензи Фелиз, Лирика Окано, Вирджиния Гарднер, Ариэла Барер, Грегг Салкин, Аллегра Акоста, Энджел Паркер, Райан Сэндс, Энни Вершинг
Дата выхода в Мире: 6 октября 2017
Дата выхода в РФ: 7 октября 2017
Рейтинг КиноПоиска: 6.291
Оценки зрителей КиноПоиска: 2034 чел
Описание:
История шести подростков, которые случайно узнают, что их родители входят в состав группы суперзлодеев под названием «Прайд». Эта группа руководит преступным миром Лос-Анджелеса. Дети узнают, что каждый из них, как и их родители, обладает какими-то способностями (а кто-то и вовсе не является человеком). Подростки решают, что не готовы принять такую судьбу, и пытаются сбежать от своих родителей....

Marvels Runaways 1 - LostFilm.TV [1080p]


Беглецы / Runaways (2017) WEBRip 1080p 10 Серий из 10
Перевод / Озвучка: Профессиональный многоголосный - LostFilm.TV
Время / Продолжительность серии: ~ 00:50:00
Информация о видео-файле:
Видео: MPEG4 Video (H264), ~ 5700 Кбит/с, 1920x1080
Аудио: Русский, английский (AC3, 2 ch, 384 Кбит/с)
Video: MPEG4 Video (H264) 1920x1080 23.976fps [V: h264 high L4.1, yuv420p, 1920x1080 [default]]
Audio: Dolby AC3 48000Hz stereo 384kbps [A: ac3, 48000 Hz, stereo, 384 kb/s [default]]
Audio: Dolby AC3 48000Hz stereo 384kbps [A: ac3, 48000 Hz, stereo, 384 kb/s]

Дата выхода новых серий / Беглецы / 1 Сезон

1 сезон 10 серия Hostile 9 янв 2018, Вт ✔
1 сезон 9 серия Doomsday 2 янв 2018, Вт ✔
1 сезон 8 серия Tsunami 26 дек 2017, Вт ✔
1 сезон 7 серия Refraction 19 дек 2017, Вт ✔
1 сезон 6 серия Metamorphosis 12 дек 2017, Вт ✔
1 сезон 5 серия Kingdom 5 дек 2017, Вт ✔
1 сезон 4 серия Fifteen 28 ноя 2017, Вт ✔
1 сезон 3 серия Destiny 21 ноя 2017, Вт ✔
1 сезон 2 серия Rewind 21 ноя 2017, Вт ✔
1 сезон 1 серия Reunion 21 ноя 2017, Вт ✔

Информация по видеофайлу

Format : Matroska
Format version : Version 4
File size : 2.24 GiB
Duration : 53 min 21 s
Overall bit rate : 6 008 kb/s
Encoded date : UTC 2017-11-24 19:35:18
Writing application : mkvmerge v7.7.0 ('Six Voices') 64bit built on Feb 28 2015 23:39:33
Writing library : libebml v1.3.1 + libmatroska v1.4.2
Video
ID : 1
Format : AVC
Format/Info : Advanced Video Codec
Format profile : High@L4.1
Format settings : CABAC / 4 Ref Frames
Format settings, CABAC : Yes
Format settings, Reference fra : 4 frames
Codec ID : V_MPEG4/ISO/AVC
Duration : 53 min 21 s
Bit rate : 5 242 kb/s
Width : 1 920 pixels
Height : 1 080 pixels
Display aspect ratio : 16:9
Frame rate mode : Constant
Frame rate : 23.976 (24000/1001) FPS
Original frame rate : 23.976 (23976/1000) FPS
Color space : YUV
Chroma subsampling : 4:2:0
Bit depth : 8 bits
Scan type : Progressive
Bits/(Pixel*Frame) : 0.105
Stream size : 1.95 GiB (87%)
Writing library : x264 core 112 r1834 a51816a
Encoding settings : cabac=1 / ref=4 / deblock=1:-3:-2 / analyse=0x3:0x113 / me=hex / subme=7 / psy=1 / psy_rd=1.00:0.00 / mixed_ref=1 / me_range=16 / chroma_me=1 / trellis=1 / 8x8dct=1 / cqm=0 / deadzone=21,11 / fast_pskip=1 / chroma_qp_offset=-2 / threads=6 / sliced_threads=0 / nr=0 / decimate=1 / interlaced=0 / constrained_intra=0 / bframes=5 / b_pyramid=2 / b_adapt=1 / b_bias=0 / direct=1 / weightb=1 / open_gop=0 / weightp=2 / keyint=250 / keyint_min=25 / scenecut=40 / intra_refresh=0 / rc_lookahead=40 / rc=2pass / mbtree=1 / bitrate=5242 / ratetol=1.0 / qcomp=0.60 / qpmin=0 / qpmax=51 / qpstep=4 / cplxblur=20.0 / qblur=0.5 / vbv_maxrate=10000 / vbv_bufsize=256000 / ip_ratio=1.40 / aq=1:1.00 / nal_hrd=none
Default : Yes
Forced : No
Audio #1
ID : 2
Format : AC-3
Format/Info : Audio Coding 3
Commercial name : Dolby Digital
Codec ID : A_AC3
Duration : 53 min 20 s
Bit rate mode : Constant
Bit rate : 384 kb/s
Channel(s) : 2 channels
Channel layout : L R
Sampling rate : 48.0 kHz
Frame rate : 31.250 FPS (1536 SPF)
Compression mode : Lossy
Stream size : 147 MiB (6%)
Service kind : Complete Main
Default : Yes
Forced : No
Audio #2
ID : 3
Format : AC-3
Format/Info : Audio Coding 3
Commercial name : Dolby Digital
Codec ID : A_AC3
Duration : 53 min 21 s
Bit rate mode : Constant
Bit rate : 384 kb/s
Channel(s) : 2 channels
Channel layout : L R
Sampling rate : 48.0 kHz
Frame rate : 31.250 FPS (1536 SPF)
Compression mode : Lossy
Stream size : 147 MiB (6%)
Service kind : Complete Main
Default : No
Forced : No

Скриншоты

Marvels Runaways 2 - LostFilm.TV [1080p]

Беглецы / Runaways 2 Сезон (2018) WEB-DL 1080p 13 Серий из 13
Перевод / Озвучка: Профессиональный многоголосный - LostFilm.TV
Время / Продолжительность серии: ~ 00:50:00
Информация о видео-файле:
Видео: MPEG4 Video (H264), ~ 5700 Кбит/с, 1920x1080
Аудио: Русский, английский (AC3, 2 ch, 384 Кбит/с)
Video: MPEG4 Video (H264) 1920x1080 23.976fps [V: h264 high L4.1, yuv420p, 1920x1080 [default]]
Audio: Dolby AC3 48000Hz stereo 384kbps [A: ac3, 48000 Hz, stereo, 384 kb/s [default]]
Audio: Dolby AC3 48000Hz stereo 384kbps [A: ac3, 48000 Hz, stereo, 384 kb/s]

Дата выхода новых серий / Беглецы / 2 Сезон

2 сезон 13 серия Split Up 21 дек 2018, Пт ✔
2 сезон 12 серия Earth Angel 21 дек 2018, Пт ✔
2 сезон 11 серия Last Waltz 21 дек 2018, Пт ✔
2 сезон 10 серия Hostile Takeover 21 дек 2018, Пт ✔
2 сезон 9 серия Big Shot 21 дек 2018, Пт ✔
2 сезон 8 серия Past Life 21 дек 2018, Пт ✔
2 сезон 7 серия Last Rites 21 дек 2018, Пт ✔
2 сезон 6 серия Bury Another 21 дек 2018, Пт ✔
2 сезон 5 серия Rock Bottom 21 дек 2018, Пт ✔
2 сезон 4 серия Old School 21 дек 2018, Пт ✔
2 сезон 3 серия Double Zeros 21 дек 2018, Пт ✔
2 сезон 2 серия Radio On 21 дек 2018, Пт ✔
2 сезон 1 серия Gimme Shelter 21 дек 2018, Пт ✔

Информация по видеофайлу

Format : Matroska
Format version : Version 4
File size : 2.24 GiB
Duration : 53 min 21 s
Overall bit rate : 6 008 kb/s
Encoded date : UTC 2017-11-24 19:35:18
Writing application : mkvmerge v7.7.0 ('Six Voices') 64bit built on Feb 28 2015 23:39:33
Writing library : libebml v1.3.1 + libmatroska v1.4.2
Video
ID : 1
Format : AVC
Format/Info : Advanced Video Codec
Format profile : High@L4.1
Format settings : CABAC / 4 Ref Frames
Format settings, CABAC : Yes
Format settings, Reference fra : 4 frames
Codec ID : V_MPEG4/ISO/AVC
Duration : 53 min 21 s
Bit rate : 5 242 kb/s
Width : 1 920 pixels
Height : 1 080 pixels
Display aspect ratio : 16:9
Frame rate mode : Constant
Frame rate : 23.976 (24000/1001) FPS
Original frame rate : 23.976 (23976/1000) FPS
Color space : YUV
Chroma subsampling : 4:2:0
Bit depth : 8 bits
Scan type : Progressive
Bits/(Pixel*Frame) : 0.105
Stream size : 1.95 GiB (87%)
Writing library : x264 core 112 r1834 a51816a
Encoding settings : cabac=1 / ref=4 / deblock=1:-3:-2 / analyse=0x3:0x113 / me=hex / subme=7 / psy=1 / psy_rd=1.00:0.00 / mixed_ref=1 / me_range=16 / chroma_me=1 / trellis=1 / 8x8dct=1 / cqm=0 / deadzone=21,11 / fast_pskip=1 / chroma_qp_offset=-2 / threads=6 / sliced_threads=0 / nr=0 / decimate=1 / interlaced=0 / constrained_intra=0 / bframes=5 / b_pyramid=2 / b_adapt=1 / b_bias=0 / direct=1 / weightb=1 / open_gop=0 / weightp=2 / keyint=250 / keyint_min=25 / scenecut=40 / intra_refresh=0 / rc_lookahead=40 / rc=2pass / mbtree=1 / bitrate=5242 / ratetol=1.0 / qcomp=0.60 / qpmin=0 / qpmax=51 / qpstep=4 / cplxblur=20.0 / qblur=0.5 / vbv_maxrate=10000 / vbv_bufsize=256000 / ip_ratio=1.40 / aq=1:1.00 / nal_hrd=none
Default : Yes
Forced : No
Audio #1
ID : 2
Format : AC-3
Format/Info : Audio Coding 3
Commercial name : Dolby Digital
Codec ID : A_AC3
Duration : 53 min 20 s
Bit rate mode : Constant
Bit rate : 384 kb/s
Channel(s) : 2 channels
Channel layout : L R
Sampling rate : 48.0 kHz
Frame rate : 31.250 FPS (1536 SPF)
Compression mode : Lossy
Stream size : 147 MiB (6%)
Service kind : Complete Main
Default : Yes
Forced : No
Audio #2
ID : 3
Format : AC-3
Format/Info : Audio Coding 3
Commercial name : Dolby Digital
Codec ID : A_AC3
Duration : 53 min 21 s
Bit rate mode : Constant
Bit rate : 384 kb/s
Channel(s) : 2 channels
Channel layout : L R
Sampling rate : 48.0 kHz
Frame rate : 31.250 FPS (1536 SPF)
Compression mode : Lossy
Stream size : 147 MiB (6%)
Service kind : Complete Main
Default : No
Forced : No

Скриншоты

Marvels Runaways 3 - LostFilm.TV [1080p]

Беглецы / Runaways 3 Сезон (2019) WEBRip 1080p 10 Серий из 10
Перевод / Озвучка: Профессиональный многоголосный - LostFilm.TV
Время / Продолжительность серии: ~ 00:50:00
Информация о видео-файле:
Видео: MPEG4 Video (H264), ~ 5700 Кбит/с, 1920x1080
Аудио: Русский, английский (AC3, 2 ch, 384 Кбит/с)
Video: MPEG4 Video (H264) 1920x1080 23.976fps [V: h264 high L4.1, yuv420p, 1920x1080 [default]]
Audio: Dolby AC3 48000Hz stereo 384kbps [A: ac3, 48000 Hz, stereo, 384 kb/s [default]]
Audio: Dolby AC3 48000Hz stereo 384kbps [A: ac3, 48000 Hz, stereo, 384 kb/s]

Дата выхода новых серий / Беглецы / 3 Сезон

3 сезон 10 серия Cheat the Gallows 13 дек 2019, Пт ✔
3 сезон 9 серия The Broken Circle 13 дек 2019, Пт ✔
3 сезон 8 серия Devil's Torture Chamber 13 дек 2019, Пт ✔
3 сезон 7 серия Left-Hand Path 13 дек 2019, Пт ✔
3 сезон 6 серия Merry Meet Again 13 дек 2019, Пт ✔
3 сезон 5 серия Enter the Dreamland 13 дек 2019, Пт ✔
3 сезон 4 серия Rite of Thunder 13 дек 2019, Пт ✔
3 сезон 3 серия Lord of Lies 13 дек 2019, Пт ✔
3 сезон 2 серия The Great Escape 13 дек 2019, Пт ✔
3 сезон 1 серия Smoke and Mirrors 13 дек 2019, Пт ✔

Информация по видеофайлу

Format : Matroska
Format version : Version 4
File size : 2.24 GiB
Duration : 53 min 21 s
Overall bit rate : 6 008 kb/s
Encoded date : UTC 2017-11-24 19:35:18
Writing application : mkvmerge v7.7.0 ('Six Voices') 64bit built on Feb 28 2015 23:39:33
Writing library : libebml v1.3.1 + libmatroska v1.4.2
Video
ID : 1
Format : AVC
Format/Info : Advanced Video Codec
Format profile : High@L4.1
Format settings : CABAC / 4 Ref Frames
Format settings, CABAC : Yes
Format settings, Reference fra : 4 frames
Codec ID : V_MPEG4/ISO/AVC
Duration : 53 min 21 s
Bit rate : 5 242 kb/s
Width : 1 920 pixels
Height : 1 080 pixels
Display aspect ratio : 16:9
Frame rate mode : Constant
Frame rate : 23.976 (24000/1001) FPS
Original frame rate : 23.976 (23976/1000) FPS
Color space : YUV
Chroma subsampling : 4:2:0
Bit depth : 8 bits
Scan type : Progressive
Bits/(Pixel*Frame) : 0.105
Stream size : 1.95 GiB (87%)
Writing library : x264 core 112 r1834 a51816a
Encoding settings : cabac=1 / ref=4 / deblock=1:-3:-2 / analyse=0x3:0x113 / me=hex / subme=7 / psy=1 / psy_rd=1.00:0.00 / mixed_ref=1 / me_range=16 / chroma_me=1 / trellis=1 / 8x8dct=1 / cqm=0 / deadzone=21,11 / fast_pskip=1 / chroma_qp_offset=-2 / threads=6 / sliced_threads=0 / nr=0 / decimate=1 / interlaced=0 / constrained_intra=0 / bframes=5 / b_pyramid=2 / b_adapt=1 / b_bias=0 / direct=1 / weightb=1 / open_gop=0 / weightp=2 / keyint=250 / keyint_min=25 / scenecut=40 / intra_refresh=0 / rc_lookahead=40 / rc=2pass / mbtree=1 / bitrate=5242 / ratetol=1.0 / qcomp=0.60 / qpmin=0 / qpmax=51 / qpstep=4 / cplxblur=20.0 / qblur=0.5 / vbv_maxrate=10000 / vbv_bufsize=256000 / ip_ratio=1.40 / aq=1:1.00 / nal_hrd=none
Default : Yes
Forced : No
Audio #1
ID : 2
Format : AC-3
Format/Info : Audio Coding 3
Commercial name : Dolby Digital
Codec ID : A_AC3
Duration : 53 min 20 s
Bit rate mode : Constant
Bit rate : 384 kb/s
Channel(s) : 2 channels
Channel layout : L R
Sampling rate : 48.0 kHz
Frame rate : 31.250 FPS (1536 SPF)
Compression mode : Lossy
Stream size : 147 MiB (6%)
Service kind : Complete Main
Default : Yes
Forced : No
Audio #2
ID : 3
Format : AC-3
Format/Info : Audio Coding 3
Commercial name : Dolby Digital
Codec ID : A_AC3
Duration : 53 min 21 s
Bit rate mode : Constant
Bit rate : 384 kb/s
Channel(s) : 2 channels
Channel layout : L R
Sampling rate : 48.0 kHz
Frame rate : 31.250 FPS (1536 SPF)
Compression mode : Lossy
Stream size : 147 MiB (6%)
Service kind : Complete Main
Default : No
Forced : No

Скриншоты

Показать сообщения:    

Текущее время: 12-Июл 21:25

Часовой пояс: UTC - 5



Вы не можете начинать темы
Вы не можете отвечать на сообщения
Вы не можете редактировать свои сообщения
Вы не можете удалять свои сообщения
Вы не можете голосовать в опросах
Вы не можете прикреплять файлы к сообщениям
Вы не можете скачивать файлы