Marvels The Punisher 1-2 - сезон / Каратель 1-2 Сезон / 1-26 Серий из 26 LostFilm.TV WEB-DL [1080p] (2017-2019)

Статистика раздачи

Нет
 
     
 
 
Автор Сообщение

Admin ®

Не в сети

2

VIP пользователь

Пол: Мужской

Стаж: 4 года 1 месяц

Сообщений: 118

Карма: 787

[+]

Провайдер: UzOnline UzOnline

Тарифный план: UNLIME 20 Mbit/sekund

Наличие запрета:



Награды: Нет

[Профиль] ЛС

Создавать темы 19-Май-2020 21:01

Цитировать

Marvels The Punisher / Каратель
Страны: США
Год создания: 2017-2019
Слоган: «The truth must be taken»
Производство студии: ABC Studios, Disney-ABC Domestic Television, Marvel Entertainment, Marvel Television, NetFlix, Walt Disney Television
Категория / Жанр: приключения, триллер, криминал, боевик, фантастика, драма
Режиссер: Энди Годдард, Джереми Уэбб, Том Шенклэнд
Сценарий: Стив Лайтфут
Продюсер: Джеймс Чори, Гэйл Бэрринджер, Mark Ambrose
Оператор: Петр Хиномац
Композитор: Тайлер Бейтс
В фильме снимались: Джон Бернтал, Эмбер Роуз Рева, Бен Барнс, Пол Шульц, Коби Фрумер, Рипли Собо, Джейми Рэй Ньюман, Эбон Мосс-Бакрак, Майкл Натансон, Даниэль Уэббер
Дата выхода в Мире: 6 ноября 2017
Рейтинг КиноПоиска: 7.851
Оценки зрителей КиноПоиска: 13 882 чел
Описание:
Долгие годы Фрэнк Касл служил в армии США, где его отлично научили убивать. Несмотря на то, что ему это не доставляло ни малейшего удовольствия, Фрэнк вынужден был выполнять приказы командования. На очередном задании он столкнулся с подлостью и предательством. Ведь это была не просто цель. Каратель, как прозвали Касла, оказался ненужным свидетелем. Но устранить его - сложная задача. Поэтому, чтобы добраться до Карателя, были убиты его жена и сын. Эти люди даже представить себе не могли, что последует после этого. Ведь теперь единственной целью, которая движет Фрэнком, является месть за свою семью. Кроме того он должен донести до людей одну очень страшную правду...

Каратель / The Punisher (2017) WEB-DL 1080p 13 Серий из 13

Перевод / Озвучка: Профессиональный многоголосый -
Время / Продолжительность серии: ~ 00:50:00
Информация о видео-файле:
Видео: MPEG4 Video (H264), ~ 4000 Кбит/с, 1920x1080
Аудио: Русский, английский (AC3, 6 ch, 384 Кбит/с)
Video: MPEG4 Video (H264) 1920x1080 23.976fps [V: h264 high L4.1, yuv420p, 1920x1080 [default]]
Audio: Dolby AC3 48000Hz stereo 384kbps [A: ac3, 48000 Hz, stereo, 384 kb/s [default]]
Audio: Dolby AC3 48000Hz stereo 384kbps [A: ac3, 48000 Hz, stereo, 384 kb/s]

Дата выхода новых серий / Каратель / 1 Сезон

1 сезон 13 серия Memento Mori 17 ноя 2017, Пт ✔
1 сезон 12 серия Home 17 ноя 2017, Пт ✔
1 сезон 11 серия Danger Close 17 ноя 2017, Пт ✔
1 сезон 10 серия Virtue of the Vicious 17 ноя 2017, Пт ✔
1 сезон 9 серия Front Toward Enemy 17 ноя 2017, Пт ✔
1 сезон 8 серия Cold Steel 17 ноя 2017, Пт ✔
1 сезон 7 серия Crosshairs 17 ноя 2017, Пт ✔
1 сезон 6 серия The Judas Goat 17 ноя 2017, Пт ✔
1 сезон 5 серия Gunner 17 ноя 2017, Пт ✔
1 сезон 4 серия Resupply 17 ноя 2017, Пт ✔
1 сезон 3 серия Kandahar 17 ноя 2017, Пт ✔
1 сезон 2 серия Two Dead Men 17 ноя 2017, Пт ✔
1 сезон 1 серия 3AM 17 ноя 2017, Пт ✔

Информация по видеофайлу

Format : Matroska
Format version : Version 4
File size : 2.16 GiB
Duration : 51 min 32 s
Overall bit rate : 6 009 kb/s
Encoded date : UTC 2017-11-19 17:29:16
Writing application : mkvmerge v9.5.0 ('Quiet Fire') 64bit
Writing library : libebml v1.3.4 + libmatroska v1.4.5
Video
ID : 1
Format : AVC
Format/Info : Advanced Video Codec
Format profile : High@L4.1
Format settings : CABAC / 4 Ref Frames
Format settings, CABAC : Yes
Format settings, Reference fra : 4 frames
Codec ID : V_MPEG4/ISO/AVC
Duration : 51 min 32 s
Bit rate : 5 242 kb/s
Width : 1 920 pixels
Height : 1 080 pixels
Display aspect ratio : 16:9
Frame rate mode : Constant
Frame rate : 23.976 (24000/1001) FPS
Original frame rate : 23.976 (23976/1000) FPS
Color space : YUV
Chroma subsampling : 4:2:0
Bit depth : 8 bits
Scan type : Progressive
Bits/(Pixel*Frame) : 0.105
Stream size : 1.89 GiB (87%)
Writing library : x264 core 112 r1834 a51816a
Encoding settings : cabac=1 / ref=4 / deblock=1:-3:-2 / analyse=0x3:0x113 / me=hex / subme=7 / psy=1 / psy_rd=1.00:0.00 / mixed_ref=1 / me_range=16 / chroma_me=1 / trellis=1 / 8x8dct=1 / cqm=0 / deadzone=21,11 / fast_pskip=1 / chroma_qp_offset=-2 / threads=6 / sliced_threads=0 / nr=0 / decimate=1 / interlaced=0 / constrained_intra=0 / bframes=5 / b_pyramid=2 / b_adapt=1 / b_bias=0 / direct=1 / weightb=1 / open_gop=0 / weightp=2 / keyint=250 / keyint_min=25 / scenecut=40 / intra_refresh=0 / rc_lookahead=40 / rc=2pass / mbtree=1 / bitrate=5242 / ratetol=1.0 / qcomp=0.60 / qpmin=0 / qpmax=51 / qpstep=4 / cplxblur=20.0 / qblur=0.5 / vbv_maxrate=10000 / vbv_bufsize=256000 / ip_ratio=1.40 / aq=1:1.00 / nal_hrd=none
Default : Yes
Forced : No
Audio #1
ID : 2
Format : AC-3
Format/Info : Audio Coding 3
Commercial name : Dolby Digital
Codec ID : A_AC3
Duration : 51 min 32 s
Bit rate mode : Constant
Bit rate : 384 kb/s
Channel(s) : 2 channels
Channel layout : L R
Sampling rate : 48.0 kHz
Frame rate : 31.250 FPS (1536 SPF)
Compression mode : Lossy
Stream size : 142 MiB (6%)
Service kind : Complete Main
Default : Yes
Forced : No
Audio #2
ID : 3
Format : AC-3
Format/Info : Audio Coding 3
Commercial name : Dolby Digital
Codec ID : A_AC3
Duration : 51 min 32 s
Bit rate mode : Constant
Bit rate : 384 kb/s
Channel(s) : 2 channels
Channel layout : L R
Sampling rate : 48.0 kHz
Frame rate : 31.250 FPS (1536 SPF)
Compression mode : Lossy
Stream size : 142 MiB (6%)
Service kind : Complete Main
Default : No
Forced : No

Скриншоты

Каратель / The Punisher 2 Сезон (2019) WEBRip 1080p 13 Серий из 13

Перевод / Озвучка: Профессиональный многоголосный -
Время / Продолжительность серии: ~ 00:52:00
Информация о видео-файле:
Видео: MPEG4 Video (H264), ~ 4000 Кбит/с, 1920x1080
Аудио: Русский, английский (AC3, 6 ch, 384 Кбит/с)
Video: MPEG4 Video (H264) 1920x1080 23.976fps [V: h264 high L4.1, yuv420p, 1920x1080 [default]]
Audio: Dolby AC3 48000Hz stereo 384kbps [A: ac3, 48000 Hz, stereo, 384 kb/s [default]]
Audio: Dolby AC3 48000Hz stereo 384kbps [A: ac3, 48000 Hz, stereo, 384 kb/s]

Дата выхода новых серий / Каратель / 2 Сезон

2 сезон 13 серия The Whirlwind 18 янв 2019, Пт ✔
2 сезон 12 серия Collision Course 18 янв 2019, Пт ✔
2 сезон 11 серия The Abyss 18 янв 2019, Пт ✔
2 сезон 10 серия The Dark Hearts of Men 18 янв 2019, Пт ✔
2 сезон 9 серия Flustercluck 18 янв 2019, Пт ✔
2 сезон 8 серия My Brother's Keeper 18 янв 2019, Пт ✔
2 сезон 7 серия One Bad Day 18 янв 2019, Пт ✔
2 сезон 6 серия Nakazat 18 янв 2019, Пт ✔
2 сезон 5 серия One-Eyed Jacks 18 янв 2019, Пт ✔
2 сезон 4 серия Scar Tissue 18 янв 2019, Пт ✔
2 сезон 3 серия Trouble the Water 18 янв 2019, Пт ✔
2 сезон 2 серия Fight or Flight 18 янв 2019, Пт ✔
2 сезон 1 серия Roadhouse Blues 18 янв 2019, Пт ✔

Информация по видеофайлу

Format : Matroska
Format version : Version 4
File size : 2.16 GiB
Duration : 51 min 32 s
Overall bit rate : 6 009 kb/s
Encoded date : UTC 2017-11-19 17:29:16
Writing application : mkvmerge v9.5.0 ('Quiet Fire') 64bit
Writing library : libebml v1.3.4 + libmatroska v1.4.5
Video
ID : 1
Format : AVC
Format/Info : Advanced Video Codec
Format profile : High@L4.1
Format settings : CABAC / 4 Ref Frames
Format settings, CABAC : Yes
Format settings, Reference fra : 4 frames
Codec ID : V_MPEG4/ISO/AVC
Duration : 51 min 32 s
Bit rate : 5 242 kb/s
Width : 1 920 pixels
Height : 1 080 pixels
Display aspect ratio : 16:9
Frame rate mode : Constant
Frame rate : 23.976 (24000/1001) FPS
Original frame rate : 23.976 (23976/1000) FPS
Color space : YUV
Chroma subsampling : 4:2:0
Bit depth : 8 bits
Scan type : Progressive
Bits/(Pixel*Frame) : 0.105
Stream size : 1.89 GiB (87%)
Writing library : x264 core 112 r1834 a51816a
Encoding settings : cabac=1 / ref=4 / deblock=1:-3:-2 / analyse=0x3:0x113 / me=hex / subme=7 / psy=1 / psy_rd=1.00:0.00 / mixed_ref=1 / me_range=16 / chroma_me=1 / trellis=1 / 8x8dct=1 / cqm=0 / deadzone=21,11 / fast_pskip=1 / chroma_qp_offset=-2 / threads=6 / sliced_threads=0 / nr=0 / decimate=1 / interlaced=0 / constrained_intra=0 / bframes=5 / b_pyramid=2 / b_adapt=1 / b_bias=0 / direct=1 / weightb=1 / open_gop=0 / weightp=2 / keyint=250 / keyint_min=25 / scenecut=40 / intra_refresh=0 / rc_lookahead=40 / rc=2pass / mbtree=1 / bitrate=5242 / ratetol=1.0 / qcomp=0.60 / qpmin=0 / qpmax=51 / qpstep=4 / cplxblur=20.0 / qblur=0.5 / vbv_maxrate=10000 / vbv_bufsize=256000 / ip_ratio=1.40 / aq=1:1.00 / nal_hrd=none
Default : Yes
Forced : No
Audio #1
ID : 2
Format : AC-3
Format/Info : Audio Coding 3
Commercial name : Dolby Digital
Codec ID : A_AC3
Duration : 51 min 32 s
Bit rate mode : Constant
Bit rate : 384 kb/s
Channel(s) : 2 channels
Channel layout : L R
Sampling rate : 48.0 kHz
Frame rate : 31.250 FPS (1536 SPF)
Compression mode : Lossy
Stream size : 142 MiB (6%)
Service kind : Complete Main
Default : Yes
Forced : No
Audio #2
ID : 3
Format : AC-3
Format/Info : Audio Coding 3
Commercial name : Dolby Digital
Codec ID : A_AC3
Duration : 51 min 32 s
Bit rate mode : Constant
Bit rate : 384 kb/s
Channel(s) : 2 channels
Channel layout : L R
Sampling rate : 48.0 kHz
Frame rate : 31.250 FPS (1536 SPF)
Compression mode : Lossy
Stream size : 142 MiB (6%)
Service kind : Complete Main
Default : No
Forced : No

Скриншоты

Показать сообщения:    

Текущее время: 12-Июл 19:51

Часовой пояс: UTC - 5



Вы не можете начинать темы
Вы не можете отвечать на сообщения
Вы не можете редактировать свои сообщения
Вы не можете удалять свои сообщения
Вы не можете голосовать в опросах
Вы не можете прикреплять файлы к сообщениям
Вы не можете скачивать файлы