Supergirl 1,2,3,4 - sezon / Супердевушка 1-4 Сезон / 1-87 Серий из 87- LostFilm.TV [1080p] (2015-2018) WEB-DL

Статистика раздачи

Нет
 
     
 
 
Автор Сообщение

Admin ®

Не в сети

2

VIP пользователь

Пол: Мужской

Стаж: 4 года 1 месяц

Сообщений: 118

Карма: 787

[+]

Провайдер: UzOnline UzOnline

Тарифный план: UNLIME 20 Mbit/sekund

Наличие запрета:



Награды: Нет

[Профиль] ЛС

Создавать темы 19-Май-2020 23:32

Цитировать

Supergirl / Супердевушка
Страны: США
Год создания: 2015-2019
Слоган: «It's not a bird. It's not a plane. It's not a man. It's Supergirl»
Производство студии: Berlanti Productions, Warner Bros. Television
Категория / Жанр: драма, фантастика, приключения, боевик
Режиссер: Глен Винтер, Джесси Уарн
Сценарий: Эли Адлер
Продюсер: Грег Берланти, Дженнифер Ленс
Роли дублировали: Александр Носков, Денис Строев, Александр Матвеев, Юлия Черкасова, Лина Иванова
Оператор: Джеймс Листон
Композитор: Блейк Нили
В фильме снимались: Мелисса Бенойст, Мехкад Брукс, Кайлер Ли, Дэвид Хэрвуд, Джереми Джордан, Кэти МакГрат, Крис Вуд, Джесси Рат, Андреа Брукс, Калиста Флокхарт
Дата выхода в Мире: 11 июля 2015
Дата выхода в РФ: 5 декабря 2015
Рейтинг КиноПоиска: 5.745
Оценки зрителей КиноПоиска: 6949 чел
Рекомендовано: зрителям, достигшим 16 лет
Описание:
Кара Зор-Эл спасаясь от гибели покидает свою родную планету Криптон в возрасте 12 лет. Она двоюродная сестра Супермена. Решила поселится на планете Земля и никому не выдавать свой секрет о сверхспособностях. Но по достижению 24 лет Кара понимает, что благодаря своей силе она способна спасти множество человеческих жизней и спасти от разрушения, воспользовавшись своей силой. Теперь и Кара встает на путь своего брата и становится оплотом безопасности для всего человечества.

Супердевушка / Supergirl (2015) WEB-DL 1080p 20 Серий из 20 LostFilm

Перевод / Озвучка: Профессиональный многоголосный - LostFilm
Время / Продолжительность серии: ~ 00:43:00
Информация о видео-файле:
Видео: MPEG-4 AVC, 5242 Кбит/с, 1920x1080
Аудио: Русский, английский (AC3, 2 ch, 384 Кбит/с)

Дата выхода новых серий / Супергёрл / 1 Сезон

1 сезон 20 серия Better Angels 18 апр 2016, Пн ✔
1 сезон 19 серия Myriad 11 апр 2016, Пн ✔
1 сезон 18 серия Worlds Finest 28 мар 2016, Пн ✔
1 сезон 17 серия Manhunter 21 мар 2016, Пн ✔
1 сезон 16 серия Falling 14 мар 2016, Пн ✔
1 сезон 15 серия Solitude 29 фев 2016, Пн ✔
1 сезон 14 серия Truth, Justice and the American Way 22 фев 2016, Пн ✔
1 сезон 13 серия For the Girl Who Has Everything 8 фев 2016, Пн ✔
1 сезон 12 серия Bizarro 1 фев 2016, Пн ✔
1 сезон 11 серия Strange Visitor from Another Planet 25 янв 2016, Пн ✔
1 сезон 10 серия Childish Things 18 янв 2016, Пн ✔
1 сезон 9 серия Blood Bonds 4 янв 2016, Пн ✔
1 сезон 8 серия Hostile Takeover 14 дек 2015, Пн ✔
1 сезон 7 серия Human for a Day 7 дек 2015, Пн ✔
1 сезон 6 серия Red Faced 30 ноя 2015, Пн ✔
1 сезон 5 серия How Does She Do It? 23 ноя 2015, Пн ✔
1 сезон 4 серия Livewire 16 ноя 2015, Пн ✔
1 сезон 3 серия Fight or Flight 9 ноя 2015, Пн ✔
1 сезон 2 серия Stronger Together 2 ноя 2015, Пн ✔
1 сезон 1 серия Pilot 26 окт 2015, Пн ✔

Информация по видеофайлу

Format : Matroska
Format version : Version 4
File size : 1.95 GiB
Duration : 46 min 21 s
Overall bit rate : 6 012 kb/s
Encoded date : UTC 2015-05-30 18:48:22
Writing application : mkvmerge v7.7.0 ('Six Voices') 64bit built on Feb 28 2015 23:39:33
Writing library : libebml v1.3.1 + libmatroska v1.4.2
Video
ID : 1
Format : AVC
Format/Info : Advanced Video Codec
Format profile : High@L4
Format settings : CABAC / 2 Ref Frames
Format settings, CABAC : Yes
Format settings, Reference fra : 2 frames
Codec ID : V_MPEG4/ISO/AVC
Duration : 46 min 21 s
Bit rate : 5 242 kb/s
Width : 1 920 pixels
Height : 1 080 pixels
Display aspect ratio : 16:9
Frame rate mode : Constant
Frame rate : 23.976 (24000/1001) FPS
Original frame rate : 23.976 (23976/1000) FPS
Color space : YUV
Chroma subsampling : 4:2:0
Bit depth : 8 bits
Scan type : Progressive
Bits/(Pixel*Frame) : 0.105
Stream size : 1.70 GiB (87%)
Writing library : x264 core 112 r1834 a51816a
Encoding settings : cabac=1 / ref=1 / deblock=1:0:0 / analyse=0x3:0x133 / me=umh / subme=7 / psy=1 / psy_rd=1.00:0.00 / mixed_ref=0 / me_range=16 / chroma_me=1 / trellis=1 / 8x8dct=1 / cqm=0 / deadzone=21,11 / fast_pskip=1 / chroma_qp_offset=-2 / threads=12 / sliced_threads=0 / nr=0 / decimate=1 / interlaced=0 / constrained_intra=0 / bframes=5 / b_pyramid=0 / b_adapt=1 / b_bias=0 / direct=3 / weightb=1 / open_gop=0 / weightp=2 / keyint=250 / keyint_min=25 / scenecut=40 / intra_refresh=0 / rc_lookahead=40 / rc=2pass / mbtree=1 / bitrate=5242 / ratetol=1.0 / qcomp=0.60 / qpmin=0 / qpmax=51 / qpstep=4 / cplxblur=20.0 / qblur=0.5 / ip_ratio=1.40 / aq=1:1.00
Default : Yes
Forced : No
Audio #1
ID : 2
Format : AC-3
Format/Info : Audio Coding 3
Commercial name : Dolby Digital
Codec ID : A_AC3
Duration : 46 min 21 s
Bit rate mode : Constant
Bit rate : 384 kb/s
Channel(s) : 2 channels
Channel layout : L R
Sampling rate : 48.0 kHz
Frame rate : 31.250 FPS (1536 SPF)
Compression mode : Lossy
Stream size : 127 MiB (6%)
Service kind : Complete Main
Default : Yes
Forced : No
Audio #2
ID : 3
Format : AC-3
Format/Info : Audio Coding 3
Commercial name : Dolby Digital
Codec ID : A_AC3
Duration : 46 min 21 s
Bit rate mode : Constant
Bit rate : 384 kb/s
Channel(s) : 2 channels
Channel layout : L R
Sampling rate : 48.0 kHz
Frame rate : 31.250 FPS (1536 SPF)
Compression mode : Lossy
Stream size : 127 MiB (6%)
Service kind : Complete Main
Default : No
Forced : No

Скриншоты

Супердевушка / Supergirl 2 Сезон (2016-2017) WEB-DL 1080p 22 Серии из 22 LostFilm

Перевод / Озвучка: Профессиональный многоголосный - LostFilm
Время / Продолжительность серии: ~ 00:45:00
Информация о видео-файле:
Формат: MKV
Видео: MPEG-4 AVC, ~ 5242 Кбит/с, 1916x1074
Аудио: Русский (AC3, 2 ch, 384 Кбит/с), английский (AC3, 6 ch, 384 Кбит/с)

Дата выхода новых серий / Супергёрл / 2 Сезон

2 сезон 22 серия Nevertheless, She Persisted 22 мая 2017, Пн ✔
2 сезон 21 серия Resist 15 мая 2017, Пн ✔
2 сезон 20 серия City of Lost Children 8 мая 2017, Пн ✔
2 сезон 19 серия Alex 1 мая 2017, Пн ✔
2 сезон 18 серия Ace Reporter 24 апр 2017, Пн ✔
2 сезон 17 серия Distant Sun 27 мар 2017, Пн ✔
2 сезон 16 серия Star-Crossed 20 мар 2017, Пн ✔
2 сезон 15 серия Exodus 6 мар 2017, Пн ✔
2 сезон 14 серия Homecoming 27 фев 2017, Пн ✔
2 сезон 13 серия Mr. & Mrs. Mxyzptlk 20 фев 2017, Пн ✔
2 сезон 12 серия Luthors 13 фев 2017, Пн ✔
2 сезон 11 серия The Martian Chronicles 6 фев 2017, Пн ✔
2 сезон 10 серия We Can Be Heroes 30 янв 2017, Пн ✔
2 сезон 9 серия Supergirl Lives 23 янв 2017, Пн ✔
2 сезон 8 серия Medusa 28 ноя 2016, Пн ✔
2 сезон 7 серия The Darkest Place 21 ноя 2016, Пн ✔
2 сезон 6 серия Changing 14 ноя 2016, Пн ✔
2 сезон 5 серия Crossfire 7 ноя 2016, Пн ✔
2 сезон 4 серия Survivors 31 окт 2016, Пн ✔
2 сезон 3 серия Welcome to Earth 24 окт 2016, Пн ✔
2 сезон 2 серия The Last Children of Krypton 17 окт 2016, Пн ✔
2 сезон 1 серия The Adventures of Supergirl 10 окт 2016, Пн ✔

Информация по видеофайлу

Format : Matroska
Format version : Version 4
File size : 1.95 GiB
Duration : 46 min 21 s
Overall bit rate : 6 012 kb/s
Encoded date : UTC 2015-05-30 18:48:22
Writing application : mkvmerge v7.7.0 ('Six Voices') 64bit built on Feb 28 2015 23:39:33
Writing library : libebml v1.3.1 + libmatroska v1.4.2
Video
ID : 1
Format : AVC
Format/Info : Advanced Video Codec
Format profile : High@L4
Format settings : CABAC / 2 Ref Frames
Format settings, CABAC : Yes
Format settings, Reference fra : 2 frames
Codec ID : V_MPEG4/ISO/AVC
Duration : 46 min 21 s
Bit rate : 5 242 kb/s
Width : 1 920 pixels
Height : 1 080 pixels
Display aspect ratio : 16:9
Frame rate mode : Constant
Frame rate : 23.976 (24000/1001) FPS
Original frame rate : 23.976 (23976/1000) FPS
Color space : YUV
Chroma subsampling : 4:2:0
Bit depth : 8 bits
Scan type : Progressive
Bits/(Pixel*Frame) : 0.105
Stream size : 1.70 GiB (87%)
Writing library : x264 core 112 r1834 a51816a
Encoding settings : cabac=1 / ref=1 / deblock=1:0:0 / analyse=0x3:0x133 / me=umh / subme=7 / psy=1 / psy_rd=1.00:0.00 / mixed_ref=0 / me_range=16 / chroma_me=1 / trellis=1 / 8x8dct=1 / cqm=0 / deadzone=21,11 / fast_pskip=1 / chroma_qp_offset=-2 / threads=12 / sliced_threads=0 / nr=0 / decimate=1 / interlaced=0 / constrained_intra=0 / bframes=5 / b_pyramid=0 / b_adapt=1 / b_bias=0 / direct=3 / weightb=1 / open_gop=0 / weightp=2 / keyint=250 / keyint_min=25 / scenecut=40 / intra_refresh=0 / rc_lookahead=40 / rc=2pass / mbtree=1 / bitrate=5242 / ratetol=1.0 / qcomp=0.60 / qpmin=0 / qpmax=51 / qpstep=4 / cplxblur=20.0 / qblur=0.5 / ip_ratio=1.40 / aq=1:1.00
Default : Yes
Forced : No
Audio #1
ID : 2
Format : AC-3
Format/Info : Audio Coding 3
Commercial name : Dolby Digital
Codec ID : A_AC3
Duration : 46 min 21 s
Bit rate mode : Constant
Bit rate : 384 kb/s
Channel(s) : 2 channels
Channel layout : L R
Sampling rate : 48.0 kHz
Frame rate : 31.250 FPS (1536 SPF)
Compression mode : Lossy
Stream size : 127 MiB (6%)
Service kind : Complete Main
Default : Yes
Forced : No
Audio #2
ID : 3
Format : AC-3
Format/Info : Audio Coding 3
Commercial name : Dolby Digital
Codec ID : A_AC3
Duration : 46 min 21 s
Bit rate mode : Constant
Bit rate : 384 kb/s
Channel(s) : 2 channels
Channel layout : L R
Sampling rate : 48.0 kHz
Frame rate : 31.250 FPS (1536 SPF)
Compression mode : Lossy
Stream size : 127 MiB (6%)
Service kind : Complete Main
Default : No
Forced : No

Скриншоты

Супердевушка / Supergirl 3 Сезон (2017) WEB-DL 1080p 23 Серии из 23 Lostfilm

Перевод / Озвучка: Профессиональный многоголосный - Lostfilm
Время / Продолжительность серии: ~ 00:45:00
Информация о видео-файле:
Формат: MKV
Видео: MPEG-4 AVC, ~ 4230 Кбит/с, 1912x1076
Аудио: Русский, английский (AC3, 2 ch, 384 Кбит/с)

Дата выхода новых серий / Супергёрл / 3 Сезон

3 сезон 23 серия Battles Lost and Won 18 июн 2018, Пн ✔
3 сезон 22 серия Make It Reign 11 июн 2018, Пн ✔
3 сезон 21 серия Not Kansas 4 июн 2018, Пн ✔
3 сезон 20 серия Dark Side of the Moon 28 мая 2018, Пн ✔
3 сезон 19 серия The Fanatical 21 мая 2018, Пн ✔
3 сезон 18 серия Shelter from the Storm 14 мая 2018, Пн ✔
3 сезон 17 серия Trinity 7 мая 2018, Пн ✔
3 сезон 16 серия Of Two Minds 30 апр 2018, Пн ✔
3 сезон 15 серия In Search of Lost Time 23 апр 2018, Пн ✔
3 сезон 14 серия Schott Through the Heart 16 апр 2018, Пн ✔
3 сезон 13 серия Both Sides Now 5 фев 2018, Пн ✔
3 сезон 12 серия For Good 29 янв 2018, Пн ✔
3 сезон 11 серия Fort Rozz 22 янв 2018, Пн ✔
3 сезон 10 серия Legion of Super-Heroes 15 янв 2018, Пн ✔
3 сезон 9 серия Reign 4 дек 2017, Пн ✔
3 сезон 8 серия Crisis on Earth-X, Part 1 27 ноя 2017, Пн ✔
3 сезон 7 серия Wake Up 20 ноя 2017, Пн ✔
3 сезон 6 серия Midvale 13 ноя 2017, Пн ✔
3 сезон 5 серия Damage 6 ноя 2017, Пн ✔
3 сезон 4 серия The Faithful 30 окт 2017, Пн ✔
3 сезон 3 серия Far from the Tree 23 окт 2017, Пн ✔
3 сезон 2 серия Triggers 16 окт 2017, Пн ✔
3 сезон 1 серия Girl of Steel 9 окт 2017, Пн ✔

Информация по видеофайлу

Format : Matroska
Format version : Version 4
File size : 1.95 GiB
Duration : 46 min 21 s
Overall bit rate : 6 012 kb/s
Encoded date : UTC 2015-05-30 18:48:22
Writing application : mkvmerge v7.7.0 ('Six Voices') 64bit built on Feb 28 2015 23:39:33
Writing library : libebml v1.3.1 + libmatroska v1.4.2
Video
ID : 1
Format : AVC
Format/Info : Advanced Video Codec
Format profile : High@L4
Format settings : CABAC / 2 Ref Frames
Format settings, CABAC : Yes
Format settings, Reference fra : 2 frames
Codec ID : V_MPEG4/ISO/AVC
Duration : 46 min 21 s
Bit rate : 5 242 kb/s
Width : 1 920 pixels
Height : 1 080 pixels
Display aspect ratio : 16:9
Frame rate mode : Constant
Frame rate : 23.976 (24000/1001) FPS
Original frame rate : 23.976 (23976/1000) FPS
Color space : YUV
Chroma subsampling : 4:2:0
Bit depth : 8 bits
Scan type : Progressive
Bits/(Pixel*Frame) : 0.105
Stream size : 1.70 GiB (87%)
Writing library : x264 core 112 r1834 a51816a
Encoding settings : cabac=1 / ref=1 / deblock=1:0:0 / analyse=0x3:0x133 / me=umh / subme=7 / psy=1 / psy_rd=1.00:0.00 / mixed_ref=0 / me_range=16 / chroma_me=1 / trellis=1 / 8x8dct=1 / cqm=0 / deadzone=21,11 / fast_pskip=1 / chroma_qp_offset=-2 / threads=12 / sliced_threads=0 / nr=0 / decimate=1 / interlaced=0 / constrained_intra=0 / bframes=5 / b_pyramid=0 / b_adapt=1 / b_bias=0 / direct=3 / weightb=1 / open_gop=0 / weightp=2 / keyint=250 / keyint_min=25 / scenecut=40 / intra_refresh=0 / rc_lookahead=40 / rc=2pass / mbtree=1 / bitrate=5242 / ratetol=1.0 / qcomp=0.60 / qpmin=0 / qpmax=51 / qpstep=4 / cplxblur=20.0 / qblur=0.5 / ip_ratio=1.40 / aq=1:1.00
Default : Yes
Forced : No
Audio #1
ID : 2
Format : AC-3
Format/Info : Audio Coding 3
Commercial name : Dolby Digital
Codec ID : A_AC3
Duration : 46 min 21 s
Bit rate mode : Constant
Bit rate : 384 kb/s
Channel(s) : 2 channels
Channel layout : L R
Sampling rate : 48.0 kHz
Frame rate : 31.250 FPS (1536 SPF)
Compression mode : Lossy
Stream size : 127 MiB (6%)
Service kind : Complete Main
Default : Yes
Forced : No
Audio #2
ID : 3
Format : AC-3
Format/Info : Audio Coding 3
Commercial name : Dolby Digital
Codec ID : A_AC3
Duration : 46 min 21 s
Bit rate mode : Constant
Bit rate : 384 kb/s
Channel(s) : 2 channels
Channel layout : L R
Sampling rate : 48.0 kHz
Frame rate : 31.250 FPS (1536 SPF)
Compression mode : Lossy
Stream size : 127 MiB (6%)
Service kind : Complete Main
Default : No
Forced : No

Скриншоты

Супердевушка / Supergirl 4 Сезон (2018) WEB-DL 1080p 22 Серии из 22 LostFilm

Перевод / Озвучка: Профессиональный многоголосный - LostFilm
Время / Продолжительность серии: ~ 00:46:00
Информация о видео-файле:
Формат: MKV
Видео: MPEG-4 AVC, 5242 Кбит/с, 1920x1080
Аудио: Русский, английский (AC3, 2 ch, 384 Кбит/с)

Дата выхода новых серий / Супергёрл / 4 Сезон

4 сезон 22 серия The Quest for Peace 19 мая 2019, Вс ✔
4 сезон 21 серия Red Dawn 12 мая 2019, Вс ✔
4 сезон 20 серия Will the Real Miss Tessmacher Please Stand Up? 5 мая 2019, Вс ✔
4 сезон 19 серия American Dreamer 28 апр 2019, Вс ✔
4 сезон 18 серия Crime and Punishment 21 апр 2019, Вс ✔
4 сезон 17 серия All About Eve 31 мар 2019, Вс ✔
4 сезон 16 серия The House of L 24 мар 2019, Вс ✔
4 сезон 15 серия O Brother, Where Art Thou? 17 мар 2019, Вс ✔
4 сезон 14 серия Stand and Deliver 10 мар 2019, Вс ✔
4 сезон 13 серия What's So Funny About Truth, Justice, and the American Way? 3 мар 2019, Вс ✔
4 сезон 12 серия Menagerie 17 фев 2019, Вс ✔
4 сезон 11 серия Blood Memory 27 янв 2019, Вс ✔
4 сезон 10 серия Suspicious Minds 20 янв 2019, Вс ✔
4 сезон 9 серия Elseworlds, Part 3 11 дек 2018, Вт ✔
4 сезон 8 серия Bunker Hill 2 дек 2018, Вс ✔
4 сезон 7 серия Rather the Fallen Angel 25 ноя 2018, Вс ✔
4 сезон 6 серия Call to Action 18 ноя 2018, Вс ✔
4 сезон 5 серия Parasite Lost 11 ноя 2018, Вс ✔
4 сезон 4 серия Ahimsa 4 ноя 2018, Вс ✔
4 сезон 3 серия Man of Steel 28 окт 2018, Вс ✔
4 сезон 2 серия Fallout 21 окт 2018, Вс ✔
4 сезон 1 серия The American Alien 14 окт 2018, Вс ✔

Информация по видеофайлу

Format : Matroska
Format version : Version 4
File size : 1.95 GiB
Duration : 46 min 21 s
Overall bit rate : 6 012 kb/s
Encoded date : UTC 2015-05-30 18:48:22
Writing application : mkvmerge v7.7.0 ('Six Voices') 64bit built on Feb 28 2015 23:39:33
Writing library : libebml v1.3.1 + libmatroska v1.4.2
Video
ID : 1
Format : AVC
Format/Info : Advanced Video Codec
Format profile : High@L4
Format settings : CABAC / 2 Ref Frames
Format settings, CABAC : Yes
Format settings, Reference fra : 2 frames
Codec ID : V_MPEG4/ISO/AVC
Duration : 46 min 21 s
Bit rate : 5 242 kb/s
Width : 1 920 pixels
Height : 1 080 pixels
Display aspect ratio : 16:9
Frame rate mode : Constant
Frame rate : 23.976 (24000/1001) FPS
Original frame rate : 23.976 (23976/1000) FPS
Color space : YUV
Chroma subsampling : 4:2:0
Bit depth : 8 bits
Scan type : Progressive
Bits/(Pixel*Frame) : 0.105
Stream size : 1.70 GiB (87%)
Writing library : x264 core 112 r1834 a51816a
Encoding settings : cabac=1 / ref=1 / deblock=1:0:0 / analyse=0x3:0x133 / me=umh / subme=7 / psy=1 / psy_rd=1.00:0.00 / mixed_ref=0 / me_range=16 / chroma_me=1 / trellis=1 / 8x8dct=1 / cqm=0 / deadzone=21,11 / fast_pskip=1 / chroma_qp_offset=-2 / threads=12 / sliced_threads=0 / nr=0 / decimate=1 / interlaced=0 / constrained_intra=0 / bframes=5 / b_pyramid=0 / b_adapt=1 / b_bias=0 / direct=3 / weightb=1 / open_gop=0 / weightp=2 / keyint=250 / keyint_min=25 / scenecut=40 / intra_refresh=0 / rc_lookahead=40 / rc=2pass / mbtree=1 / bitrate=5242 / ratetol=1.0 / qcomp=0.60 / qpmin=0 / qpmax=51 / qpstep=4 / cplxblur=20.0 / qblur=0.5 / ip_ratio=1.40 / aq=1:1.00
Default : Yes
Forced : No
Audio #1
ID : 2
Format : AC-3
Format/Info : Audio Coding 3
Commercial name : Dolby Digital
Codec ID : A_AC3
Duration : 46 min 21 s
Bit rate mode : Constant
Bit rate : 384 kb/s
Channel(s) : 2 channels
Channel layout : L R
Sampling rate : 48.0 kHz
Frame rate : 31.250 FPS (1536 SPF)
Compression mode : Lossy
Stream size : 127 MiB (6%)
Service kind : Complete Main
Default : Yes
Forced : No
Audio #2
ID : 3
Format : AC-3
Format/Info : Audio Coding 3
Commercial name : Dolby Digital
Codec ID : A_AC3
Duration : 46 min 21 s
Bit rate mode : Constant
Bit rate : 384 kb/s
Channel(s) : 2 channels
Channel layout : L R
Sampling rate : 48.0 kHz
Frame rate : 31.250 FPS (1536 SPF)
Compression mode : Lossy
Stream size : 127 MiB (6%)
Service kind : Complete Main
Default : No
Forced : No

Скриншоты

Показать сообщения:    

Текущее время: 02-Июл 11:41

Часовой пояс: UTC - 5



Вы не можете начинать темы
Вы не можете отвечать на сообщения
Вы не можете редактировать свои сообщения
Вы не можете удалять свои сообщения
Вы не можете голосовать в опросах
Вы не можете прикреплять файлы к сообщениям
Вы не можете скачивать файлы