Onani izlab: Ikkiligi / П поисках мамы: Дилогия [2017-2019, Drama, oilaviy, komediya, BDRip, 720p] O'zbek tilida

Статистика раздачи

Скачал: [ 5 ]
 
     
 
 
Автор Сообщение

Ahmadullo2019 ®

Не в сети

5505

Пол: Мужской

Стаж: 8 месяцев 3 дня

Сообщений: 15

Карма: 10

[+]

Провайдер: UzOnline UzOnline

Наличие запрета:



Награды: Нет

[Профиль] ЛС

Создавать темы 21-Май-2020 14:30

Цитировать

Onani izlab: Ikkiligi / П поисках мамы: Дилогия

Onani izlab 1 / П поисках мамы 1 (2017)

Chiqqan yili: 2017
Davlat: Qirg'iziston
Janr: Drama, oilaviy, komediya
Davomiyligi: 01:50:12
Tarjima: Professional (Dublyaj) O'zbek tilida
Rejissyor: Ruslan Akun
Rollarda: Azamat Ulanov, Tauekel Muslim, Maykl Maponga, Edgar Pevsner-Tavsif: Azamat bolalar uyida o'sadi va uning oilasi haqida hech narsa bilmaydi. Ammo bir kuni u tasodifan onasi Amerikada yashashi mumkinligi haqida ma'lumot oladi. Bola chet elga borish yo'lini topadi: u matematika olimpiadasida g'olib chiqadi va taklifnoma oladi. Azamat katta umid bilan chet elga jo'naydi ...-Videoning sifati: BDRip 720p
Video format: MKV
Video: MPEG4 Video (H264) 1280x720 29.97fps
Audio: O'zbekcha (AAC, 2 ch, 128 Kbit/s)-Subtitrlar: -

Media Info

General
Unique ID : 77183767868788633736375966720029671447 (0x3A110D8FD4574705FAC0FD4417DCC017)
Complete name : K:\MEDIA\HD MOVIES\TARJIMA HD x264 x265\2019-2020\Onani.izlab.1.2017.720p.mkv
Format : Matroska
Format version : Version 4
File size : 1.50 GiB
Duration : 1 h 50 min
Overall bit rate : 1 952 kb/s
Encoded date : UTC 2020-05-21 18:09:22
Writing application : mkvmerge v21.0.0 ('Tardigrades Will Inherit The Earth') 64-bit
Writing library : libebml v1.3.5 + libmatroska v1.4.8
Video
ID : 1
Format : AVC
Format/Info : Advanced Video Codec
Format profile : Main@L3.1
Format settings : CABAC / 2 Ref Frames
Format settings, CABAC : Yes
Format settings, Reference fra : 2 frames
Format settings, GOP : M=1, N=25
Codec ID : V_MPEG4/ISO/AVC
Duration : 1 h 50 min
Bit rate : 1 754 kb/s
Width : 1 280 pixels
Height : 720 pixels
Display aspect ratio : 16:9
Frame rate mode : Constant
Frame rate : 29.970 (30000/1001) FPS
Color space : YUV
Chroma subsampling : 4:2:0
Bit depth : 8 bits
Scan type : Progressive
Bits/(Pixel*Frame) : 0.064
Stream size : 1.35 GiB (90%)
Default : Yes
Forced : No
Audio
ID : 2
Format : AAC LC
Format/Info : Advanced Audio Codec Low Complexity
Codec ID : A_AAC-2
Duration : 1 h 50 min
Bit rate : 192 kb/s
Channel(s) : 2 channels
Channel layout : L R
Sampling rate : 44.1 kHz
Frame rate : 43.066 FPS (1024 SPF)
Compression mode : Lossy
Stream size : 154 MiB (10%)
Language : Uzbek
Default : Yes
Forced : Yes
Text
ID : 3
Format : UTF-8
Codec ID : S_TEXT/UTF8
Codec ID/Info : UTF-8 Plain Text
Duration : 1 h 0 min
Bit rate : 0 b/s
Count of elements : 4
Stream size : 128 Bytes (0%)
Language : Uzbek
Default : Yes
Forced : Yes

Lavhalar

Onani izlab 2: Yangi sarguzashtlar / В поисках мамы 2: Новые приключения (2019)

Chiqqan yili: 2019
Davlat: Qirg'iziston
Janr: Drama, oilaviy, komediya
Davomiyligi: 01:24:25
Tarjima: Professional (Dublyaj) O'zbek tilida [SevimliTV]
Rejissyor: Ruslan Akun
Rollarda: Emil Esenaliyev, Burak Xon, Maykl Maponga, Taukel Muslim, Azamat Ulanov-Tavsif: Daniyar va Aliya turmushga chiqmoqchi bo'lishdi, lekin Aliyaning katta akasi Murod birinchi uchrashuvdan Daniyarni yoqtirmadi. To'ydan oldin Murat chet elda tibbiy ko'rikdan o'tishi kerakligi ma'lum bo'ldi. Daniyar, Murat ularning to'ylariga xalaqit berish uchun o'zini kasal bo'lib ko'rsatayotganiga ishonadi. Azamat va Daniyar Muratni tekshiruv uchun Turkiyaga borishga ko'ndira olmadilar va buning evaziga ular turk telekanallarining yulduzi Murodni o'zi bilan birga topshirishga va'da berishdi.-Videoning sifati: TVrip-AVC
Video format: MKV
Video: MPEG4 Video (H264) 858x342 29.97fps
Audio: O'zbekcha (AAC, 2 ch, 128 Kbit/s)-Subtitrlar: -

Media Info

General
Unique ID : 168083249982819736614610241255032691824 (0x7E73A80BBE3482158DB3A465FA5B1C70)
Complete name : K:\MEDIA\HD MOVIES\TARJIMA HD x264 x265\2019-2020\Onani.izlab.2.2019.480p.mkv
Format : Matroska
Format version : Version 4
File size : 1.18 GiB
Duration : 1 h 24 min
Overall bit rate : 1 996 kb/s
Encoded date : UTC 2020-05-21 18:09:55
Writing application : mkvmerge v21.0.0 ('Tardigrades Will Inherit The Earth') 64-bit
Writing library : libebml v1.3.5 + libmatroska v1.4.8 / Lavf58.12.100
Video
ID : 1
Format : AVC
Format/Info : Advanced Video Codec
Format profile : Main@L3
Format settings : CABAC / 2 Ref Frames
Format settings, CABAC : Yes
Format settings, Reference fra : 2 frames
Codec ID : V_MPEG4/ISO/AVC
Duration : 1 h 24 min
Bit rate : 1 799 kb/s
Width : 858 pixels
Height : 342 pixels
Display aspect ratio : 2.509
Frame rate mode : Constant
Frame rate : 29.970 (30000/1001) FPS
Color space : YUV
Chroma subsampling : 4:2:0
Bit depth : 8 bits
Scan type : Progressive
Bits/(Pixel*Frame) : 0.205
Stream size : 1.06 GiB (90%)
Default : Yes
Forced : No
Audio
ID : 2
Format : AAC LC
Format/Info : Advanced Audio Codec Low Complexity
Codec ID : A_AAC-2
Duration : 1 h 24 min
Bit rate : 192 kb/s
Channel(s) : 2 channels
Channel layout : L R
Sampling rate : 44.1 kHz
Frame rate : 43.066 FPS (1024 SPF)
Compression mode : Lossy
Stream size : 118 MiB (10%)
Title : uzb by MuhammadAhmad
Language : Uzbek
Default : Yes
Forced : Yes
Text
ID : 3
Format : UTF-8
Codec ID : S_TEXT/UTF8
Codec ID/Info : UTF-8 Plain Text
Duration : 1 h 0 min
Bit rate : 0 b/s
Count of elements : 4
Stream size : 128 Bytes (0%)
Language : Uzbek
Default : Yes
Forced : Yes

Lavhalar

Показать сообщения:    

Текущее время: 06-Июл 07:12

Часовой пояс: UTC - 5



Вы не можете начинать темы
Вы не можете отвечать на сообщения
Вы не можете редактировать свои сообщения
Вы не можете удалять свои сообщения
Вы не можете голосовать в опросах
Вы не можете прикреплять файлы к сообщениям
Вы не можете скачивать файлы