Регистрация ·
Имя: Пароль:  
· Забыли пароль? · Вопросы от гостей
Kliplar To'plami
O'zbek Tilida
Rizanova
12 Round
O'zbek Tilida
BluRay 1080p
Qo'riqchi ayol
O'zbek Tilida
BluRay 1080p
SHAFT
O'zbek Tilida
BDRip
SHAFT
O'zbek Tilida
WEBRip 1080p
Javohir politsiyachi
O'zbek Tilida
BDRip-AVC
So'nggi Ritsarlar
O'zbek Tilida
BluRay 1080p
Агент Ева
O'zbek Tilida
WEB-Rip
Анна
iTunes
BDRip 1080p
Анна
iTunes
BDRip-AVC
Анна
iTunes
BDRip
Mulan
O'zbek Tilida
WEBRip 1080p HEVC x265
Мулан
IdeaFilm
WEB-DL 720p
Мулан
IdeaFilm
WEB-DL 1080p
Мулан
IdeaFilm
WEB-DL 2160p
Temir Odam Uchligi
O'zbek Tilida
BluRay, 1080p, HEVC, x265, 10bit
Kliplar To'plami
O'zbek Tilida
Rizanova
Singularity
Repack
Mechanics
Tom Raider
Repack
Xatab
Far Cry New Dawn
Repack
Xatab
Far Cry 3
Repack
Xatab
Фитнес
Россия
WEB-DL 720p
Resident Evil
Гексалогия
Repack
Godzilla 2; Mahluqlar Qiroli
O'zbek Tilida
WEBRip HEVC 720p
Olimpning Qulashi
O'zbek Tilida
BDRip
X-Odamlar Qora Qaqnus
O'zbek Tilida
BDRip 1080p
Sevishganlar
O'zbek Tilida
HDRip
Maymunlar Sayyorasi Uchlik
O'zbek Tilida
BDRip
Koko Siri
O'zbek Tilida
BDRip-AVC
Спартак
РенТВ
BDRip 720p
Shelbilar oilasi
O'zbek Tilida
x265 1080p WEBRip 10bit
Однажды на востоке
Лицензия
BDRip 1080p
Yason va Argonaftlar
O'zbek Tilida
DVDRip x264
Shelbilar oilasi
O'zbek Tilida
BluRay 1080p x264
Qotillik Uchun Uch Kun
O'zbek Tilida
BluRay 1080p x264
Ko'd 211
O'zbek + Rus + Ing
BluRay 1080p
Интрижка
iTunes
WEB-DLRip
WarFace
Лицензия
Русский
Хоббит / Властелин колец
Коллекция
BDRip 1080p H264
SamDrivers
x32/x64
Repack
Чудесный доктор
WEB-DL 1080p
Турция
Острые козырьки
H265 1080p BluRay
Uzb+Ing
S.T.A.L.K.E.R
Анталогия
Repack
Зов джунглей
Рус
WEB-DL 1080p
Ajal Poygasi
Uzb Rus Ing
BrRip 1080p H264
Yengilmas Gvardiya
O'zbek Tilida
WEB-DL 1080p H264
Suv va Olov
O'zbek Tilida
BDRip H264
S.T.A.L.K.E.R.
Анталогия Модов
GSC Game World
GTA 5
RePack
Лицензия
Tunnel: Hayot uchun xavfli
Uzb Tilida
WEB-DL 1080p

До нового года осталось

Уважаемые гости сайта! Добро Пожаловать на наш торрент трекер,где Вы можете бесплатно скачать любой Софт,Фильмы,Музыку и многое другое! А так же постоянно ведется набор модераторов и релизеров. Зарегистрируйтесь сейчас, чтобы получить доступ ко всем функциям. После регистрации или входа на сайт вы сможете создавать темы, отвечать на сообщения и скачивать файлы.

Сборник советских комедий (Леонид Гайдай , Александр Серый) [1971,1973,1967,1965,1961, СССР , комедия, драма , семейный , фантастика,] BDRip.1080p

Статистика раздачи
Скачал: [ 1 ]
Сегодня идет свободное скачивание без начисления Download
 
     
 
 
Автор Сообщение

Admin ®

Не в сети

2

VIP пользователь

Пол: Мужской

Стаж: 4 года 6 месяцев

Сообщений: 151

Карма: 787

[+]

Провайдер: UzOnline UzOnline

Тарифный план: UNLIME 20 Mbit/sekund

Наличие запрета:



Награды: Нет

[Профиль] ЛС

Создавать темы 21-Май-2020 23:59

Цитировать

Сборник советских комедий (Леонид Гайдай , Александр Серый) [1961,1965,1967,1971,1973, СССР , комедия, драма , семейный , фантастика,] BDRip.1080p
Информация о фильме
Год выхода: 1961,1965,1967,1971,1973
Жанр: фантастика, комедия, приключения, семейный
Режиссеры: Леонид Гайдай, Александр Серый
Страна: СССР
Кодек: x.264
Качество: BDRip 1080p
Видео: 6400 kb/s, 1472x1080, 23.976 fps
Звук: AC3, 384 kb/s (6Ch)
Субтитры: нет

Пес Барбос и необычный кросс, Самогонщики, Сто грамм для храбрости (1961-1976) BDRip 1080p

Информация о фильме
Оригинальное название: Пес Барбос и необычный кросс, Самогонщики, Сто грамм для храбрости
Год выпуска: 1961-1976
Жанр: Эксцентрическая комедия
Режиссер: Леонид Гайдай, Константин Бровин, Георгий Щукин
В ролях: Евгений Моргунов, Георгий Вицин, Юрий Никулин, Игорь Ясулович, Юрий Кузьменков, Владимир Басов, Георгий Кавтарадзе, Михаил Светин, Валентина Титова, Элене Кипшидзе, Дима Шаройченко, Николай Гринько, Борислав Брондуков, Татьяна Васильева, Александр Белявский, Нинель Мышкова
О фильме:
В сборник вошли три новеллы: "Пес Барбос и необычный кросс" - рассказ о наказании постигшем на рыбалке троицу горе-браконьеров..., "Самогонщики" - Трус, Балбес и Бывалый решают поставить на широкую ногу изготовление самогона - и снова фиаско..., "Сто грамм для храбрости" - история про очень застенчивого человека, который, отправившись на первое свидание с любимой женщиной, решает для бодрости духа выпить «сто грамм»… - три сатирические новеллы антиалкогольной тематики...
Выпущено: СССР
Продолжительность: 01:44:25 (00:10:28 + 00:18:58 + 01:14:59)
Язык: Русский
Файл
Кодек: x264
Качество: BDRip 1080p
Видео 1: 1480x1080, 5548 Kbps, 23.976 fps
Видео 2: 1480x1080, 5548 Kbps, 23.976 fps
Видео 3: 1920x816, 5548 Kbps, 23.976 fps
Аудио: AC-3, 6 ch, 448 kbps (Rus)
Субтитры: Нет

Скриншоты "Самогонщики / Пес Барбос и необычный кросс

Скриншоты "Сто грамм для храбрости"

MI - Пес Барбос и необычный кросс

Общее
Уникальный идентификатор : 219434316159373677920730267291812198144 (0xA51583148339754580AEE2FD910D7700)
Полное имя : Пес Барбос и необычный кросс.1961.BDRip.1080p.Rus.mkv
Формат : Matroska
Версия формата : Version 2
Размер файла : 449 Мбайт
Продолжительность : 10 м.
Общий поток : 6003 Кбит/сек
Название фильма : Пес Барбос и необычный кросс.1961
Дата кодирования : UTC 2013-05-20 13:59:44
Программа кодирования : mkvmerge v5.8.0 ('No Sleep / Pillow') built on Sep 2 2012 15:37:04
Библиотека кодирования : libebml v1.2.3 + libmatroska v1.3.0
Видео
Идентификатор : 1
Формат : AVC
Формат/Информация : Advanced Video Codec
Профиль формата : High@L4.1
Параметр CABAC формата : Да
Параметр ReFrames формата : 4 кадра
Идентификатор кодека : V_MPEG4/ISO/AVC
Продолжительность : 10 м.
Битрейт : 5548 Кбит/сек
Ширина : 1480 пикселей
Высота : 1080 пикселей
Соотношение сторон : 1,370
Режим частоты кадров : Постоянный
Частота кадров : 23,976 кадра/сек
Цветовое пространство : YUV
Субдискретизация насыщенности : 4:2:0
Битовая глубина : 8 бит
Тип развёртки : Прогрессивная
Бит/(Пиксели*Кадры) : 0.145
Размер потока : 407 Мбайт (91%)
Заголовок : Rip by Boriy
Библиотека кодирования : x264 core 132 r2310 76a5c3a
Настройки программы : cabac=1 / ref=4 / deblock=1:-3:-3 / analyse=0x3:0x113 / me=umh / subme=10 / psy=1 / psy_rd=1.00:0.10 / mixed_ref=1 / me_range=32 / chroma_me=1 / trellis=2 / 8x8dct=1 / cqm=0 / deadzone=21,11 / fast_pskip=0 / chroma_qp_offset=-2 / threads=12 / lookahead_threads=1 / sliced_threads=0 / nr=0 / decimate=0 / interlaced=0 / bluray_compat=0 / constrained_intra=0 / bframes=5 / b_pyramid=2 / b_adapt=2 / b_bias=0 / direct=3 / weightb=1 / open_gop=0 / weightp=2 / keyint=240 / keyint_min=23 / scenecut=40 / intra_refresh=0 / rc=2pass / mbtree=0 / bitrate=5548 / ratetol=1.0 / qcomp=0.60 / qpmin=0 / qpmax=69 / qpstep=4 / cplxblur=20.0 / qblur=0.5 / ip_ratio=1.40 / pb_ratio=1.30 / aq=1:0.80
Язык : English
Default : Да
Forced : Нет
Аудио
Идентификатор : 2
Формат : AC-3
Формат/Информация : Audio Coding 3
Расширение режима : CM (complete main)
Параметр Endianness формата : Big
Идентификатор кодека : A_AC3
Продолжительность : 10 м.
Вид битрейта : Постоянный
Битрейт : 448 Кбит/сек
Каналы : 6 каналов
Расположение каналов : Front: L C R, Side: L R, LFE
Частота : 48,0 КГц
Битовая глубина : 16 бит
Метод сжатия : С потерями
Размер потока : 33,5 Мбайт (7%)
Заголовок : Оригинал
Язык : Russian
Default : Да
Forced : Нет

MI - Самогонщики

Общее
Уникальный идентификатор : 179989408699163410413031207772513520950 (0x8768B2FE069F3CE78728AACC567A4D36)
Полное имя : Самогонщики.1961.BDRip.1080p.Rus.mkv
Формат : Matroska
Версия формата : Version 2
Размер файла : 815 Мбайт
Продолжительность : 18 м.
Общий поток : 6001 Кбит/сек
Название фильма : Самогонщики.1961
Дата кодирования : UTC 2013-05-20 14:03:30
Программа кодирования : mkvmerge v5.8.0 ('No Sleep / Pillow') built on Sep 2 2012 15:37:04
Библиотека кодирования : libebml v1.2.3 + libmatroska v1.3.0
Видео
Идентификатор : 1
Формат : AVC
Формат/Информация : Advanced Video Codec
Профиль формата : High@L4.1
Параметр CABAC формата : Да
Параметр ReFrames формата : 4 кадра
Идентификатор кодека : V_MPEG4/ISO/AVC
Продолжительность : 18 м.
Битрейт : 5548 Кбит/сек
Ширина : 1480 пикселей
Высота : 1080 пикселей
Соотношение сторон : 1,370
Режим частоты кадров : Постоянный
Частота кадров : 23,976 кадра/сек
Цветовое пространство : YUV
Субдискретизация насыщенности : 4:2:0
Битовая глубина : 8 бит
Тип развёртки : Прогрессивная
Бит/(Пиксели*Кадры) : 0.145
Размер потока : 738 Мбайт (91%)
Заголовок : Rip by Boriy
Библиотека кодирования : x264 core 132 r2310 76a5c3a
Настройки программы : cabac=1 / ref=4 / deblock=1:-3:-3 / analyse=0x3:0x113 / me=umh / subme=10 / psy=1 / psy_rd=1.00:0.10 / mixed_ref=1 / me_range=32 / chroma_me=1 / trellis=2 / 8x8dct=1 / cqm=0 / deadzone=21,11 / fast_pskip=0 / chroma_qp_offset=-2 / threads=12 / lookahead_threads=1 / sliced_threads=0 / nr=0 / decimate=0 / interlaced=0 / bluray_compat=0 / constrained_intra=0 / bframes=5 / b_pyramid=2 / b_adapt=2 / b_bias=0 / direct=3 / weightb=1 / open_gop=0 / weightp=2 / keyint=240 / keyint_min=23 / scenecut=40 / intra_refresh=0 / rc=2pass / mbtree=0 / bitrate=5548 / ratetol=1.0 / qcomp=0.60 / qpmin=0 / qpmax=69 / qpstep=4 / cplxblur=20.0 / qblur=0.5 / ip_ratio=1.40 / pb_ratio=1.30 / aq=1:0.80
Язык : English
Default : Да
Forced : Нет
Аудио
Идентификатор : 2
Формат : AC-3
Формат/Информация : Audio Coding 3
Расширение режима : CM (complete main)
Параметр Endianness формата : Big
Идентификатор кодека : A_AC3
Продолжительность : 18 м.
Вид битрейта : Постоянный
Битрейт : 448 Кбит/сек
Каналы : 6 каналов
Расположение каналов : Front: L C R, Side: L R, LFE
Частота : 48,0 КГц
Битовая глубина : 16 бит
Метод сжатия : С потерями
Размер потока : 60,8 Мбайт (7%)
Заголовок : Оригинал
Язык : Russian
Default : Да
Forced : Нет

MI - «Сто грамм» для храбрости

Общее
Уникальный идентификатор : 190571576007144733153986196161022970328 (0x8F5EC01F5591DA318EF7A0AF5384C9D8)
Полное имя : «Сто грамм» для храбрости.1976.BDRip.1080p.Rus.mkv
Формат : Matroska
Версия формата : Version 2
Размер файла : 3,14 Гбайт
Продолжительность : 1 ч. 14 м.
Общий поток : 5998 Кбит/сек
Название фильма : «Сто грамм» для храбрости.1976
Дата кодирования : UTC 2013-05-20 14:06:12
Программа кодирования : mkvmerge v5.8.0 ('No Sleep / Pillow') built on Sep 2 2012 15:37:04
Библиотека кодирования : libebml v1.2.3 + libmatroska v1.3.0
Видео
Идентификатор : 1
Формат : AVC
Формат/Информация : Advanced Video Codec
Профиль формата : High@L4.1
Параметр CABAC формата : Да
Параметр ReFrames формата : 5 кадров
Идентификатор кодека : V_MPEG4/ISO/AVC
Продолжительность : 1 ч. 14 м.
Битрейт : 5548 Кбит/сек
Ширина : 1920 пикселей
Высота : 816 пикселей
Соотношение сторон : 2,35:1
Режим частоты кадров : Постоянный
Частота кадров : 23,976 кадра/сек
Цветовое пространство : YUV
Субдискретизация насыщенности : 4:2:0
Битовая глубина : 8 бит
Тип развёртки : Прогрессивная
Бит/(Пиксели*Кадры) : 0.148
Размер потока : 2,84 Гбайт (91%)
Заголовок : Rip by Boriy
Библиотека кодирования : x264 core 132 r2310 76a5c3a
Настройки программы : cabac=1 / ref=5 / deblock=1:-3:-3 / analyse=0x3:0x113 / me=umh / subme=10 / psy=1 / psy_rd=1.00:0.10 / mixed_ref=1 / me_range=32 / chroma_me=1 / trellis=2 / 8x8dct=1 / cqm=0 / deadzone=21,11 / fast_pskip=0 / chroma_qp_offset=-2 / threads=12 / lookahead_threads=1 / sliced_threads=0 / nr=0 / decimate=0 / interlaced=0 / bluray_compat=0 / constrained_intra=0 / bframes=5 / b_pyramid=2 / b_adapt=2 / b_bias=0 / direct=3 / weightb=1 / open_gop=0 / weightp=2 / keyint=240 / keyint_min=23 / scenecut=40 / intra_refresh=0 / rc=2pass / mbtree=0 / bitrate=5548 / ratetol=1.0 / qcomp=0.60 / qpmin=0 / qpmax=69 / qpstep=4 / cplxblur=20.0 / qblur=0.5 / ip_ratio=1.40 / pb_ratio=1.30 / aq=1:0.80
Язык : English
Default : Да
Forced : Нет
Аудио
Идентификатор : 2
Формат : AC-3
Формат/Информация : Audio Coding 3
Расширение режима : CM (complete main)
Параметр Endianness формата : Big
Идентификатор кодека : A_AC3
Продолжительность : 1 ч. 14 м.
Вид битрейта : Постоянный
Битрейт : 448 Кбит/сек
Каналы : 6 каналов
Расположение каналов : Front: L C R, Side: L R, LFE
Частота : 48,0 КГц
Битовая глубина : 16 бит
Метод сжатия : С потерями
Размер потока : 240 Мбайт (7%)
Заголовок : Оригинал
Язык : Russian
Default : Да
Forced : Нет

Операция «Ы» и другие приключения Шурика (1965) BDRip 1080p

Информация о фильме
Оригинальное название: Операция «Ы» и другие приключения Шурика
Год выпуска: 1965
Жанр: мелодрама, комедия, криминал
Режиссер: Леонид Гайдай
В ролях: Александр Демьяненко, Наталья Селезнёва, Алексей Смирнов, Юрий Никулин, Евгений Моргунов, Георгий Вицин, Михаил Пуговкин, Виктор Павлов, Владимир Басов, Рина Зеленая, Виктор Уральский, Георгий Ахундов
О фильме:
Фильм состоит из трех новелл, объединенных фигурой главного героя Шурика, попадающего в самые невероятные ситуации. В «Напарнике» Шурик сражается с хулиганом Верзилой; в «Наваждении» весьма оригинальным способом готовится к экзамену; в «Операции «Ы» предотвращает «ограбление века», на которое идет знаменитая тройка — Балбес, Трус и Бывалый.
Выпущено: СССР
Продолжительность: 01:34:33
Язык: Русский
Файл
Кодек: x264
Качество: BDRip 1080p
Видео: 1424x1080, 6174 Kbps, 23.976 fps
Аудио: AC-3, 6 ch, 448 kbps (Rus)
Субтитры: Нет

Скриншоты

MI

Общее
Уникальный идентификатор : 202873244045462273549894412886688740784 (0x989FF72F15D15B929EBDD19CD1B135B0)
Полное имя : Операция «Ы» и другие приключения Шурика.1965.BDRip.1080p.Rus.mkv
Формат : Matroska
Версия формата : Version 2
Размер файла : 4,37 Гбайт
Продолжительность : 1 ч. 34 м.
Общий поток : 6623 Кбит/сек
Название фильма : Операция «Ы» и другие приключения Шурика.1965
Дата кодирования : UTC 2013-05-19 11:25:55
Программа кодирования : mkvmerge v5.8.0 ('No Sleep / Pillow') built on Sep 2 2012 15:37:04
Библиотека кодирования : libebml v1.2.3 + libmatroska v1.3.0
Видео
Идентификатор : 1
Формат : AVC
Формат/Информация : Advanced Video Codec
Профиль формата : High@L4.1
Параметр CABAC формата : Да
Параметр ReFrames формата : 4 кадра
Идентификатор кодека : V_MPEG4/ISO/AVC
Продолжительность : 1 ч. 34 м.
Битрейт : 6174 Кбит/сек
Ширина : 1424 пикселя
Высота : 1080 пикселей
Соотношение сторон : 4:3
Режим частоты кадров : Постоянный
Частота кадров : 23,976 кадра/сек
Цветовое пространство : YUV
Субдискретизация насыщенности : 4:2:0
Битовая глубина : 8 бит
Тип развёртки : Прогрессивная
Бит/(Пиксели*Кадры) : 0.167
Размер потока : 3,99 Гбайт (91%)
Заголовок : Rip by Boriy
Библиотека кодирования : x264 core 132 r2310 76a5c3a
Настройки программы : cabac=1 / ref=4 / deblock=1:-3:-3 / analyse=0x3:0x113 / me=umh / subme=10 / psy=1 / psy_rd=1.00:0.10 / mixed_ref=1 / me_range=32 / chroma_me=1 / trellis=2 / 8x8dct=1 / cqm=0 / deadzone=21,11 / fast_pskip=0 / chroma_qp_offset=-2 / threads=12 / lookahead_threads=1 / sliced_threads=0 / nr=0 / decimate=0 / interlaced=0 / bluray_compat=0 / constrained_intra=0 / bframes=5 / b_pyramid=2 / b_adapt=2 / b_bias=0 / direct=3 / weightb=1 / open_gop=0 / weightp=2 / keyint=240 / keyint_min=23 / scenecut=40 / intra_refresh=0 / rc=2pass / mbtree=0 / bitrate=6174 / ratetol=1.0 / qcomp=0.60 / qpmin=0 / qpmax=69 / qpstep=4 / cplxblur=20.0 / qblur=0.5 / ip_ratio=1.40 / pb_ratio=1.30 / aq=1:0.80
Язык : English
Default : Да
Forced : Нет
Аудио
Идентификатор : 2
Формат : AC-3
Формат/Информация : Audio Coding 3
Расширение режима : CM (complete main)
Параметр Endianness формата : Big
Идентификатор кодека : A_AC3
Продолжительность : 1 ч. 34 м.
Вид битрейта : Постоянный
Битрейт : 448 Кбит/сек
Каналы : 6 каналов
Расположение каналов : Front: L C R, Side: L R, LFE
Частота : 48,0 КГц
Битовая глубина : 16 бит
Метод сжатия : С потерями
Размер потока : 303 Мбайт (7%)
Заголовок : Оригинал
Язык : Russian
Default : Да
Forced : Нет
Меню
00:00:00.000 : :Chapter 1
00:03:46.935 : :Chapter 2
00:08:52.615 : :Chapter 3
00:13:58.629 : :Chapter 4
00:17:53.322 : :Chapter 5
00:25:03.502 : :Chapter 6
00:31:35.893 : :Chapter 7
00:35:16.948 : :Chapter 8
00:41:43.584 : :Chapter 9
00:45:58.630 : :Chapter 10
00:52:43.160 : :Chapter 11
00:57:14.055 : :Chapter 12
01:03:11.037 : :Chapter 13
01:06:33.489 : :Chapter 14
01:13:24.608 : :Chapter 15
01:15:08.212 : :Chapter 16
01:20:51.513 : :Chapter 17
01:29:02.003 : :Chapter 18
01:34:28.079 : :Chapter 19

Кавказская пленница, или Новые приключения Шурика (1967) BDRip 1080p

Страна: СССР
Жанр: мелодрама, комедия, приключения, семейный, музыка
Год выпуска: 1966
Продолжительность: 01:19:53
Перевод: Не требуется
Субтитры: нет
Режиссер: Леонид Гайдай
В ролях: Александр Демьяненко (Шурик), Наталья Варлей (Нина), Юрий Никулин (Балбес), Георгий Вицин (Трус), Евгений Моргунов (Бывалый), Владимир Этуш (товарищ Саахов), Фрунзик Мкртчян (Джабраил), Руслан Ахметов (Эдик), Нина Гребешкова (доктор), Михаил Глузский (администратор гостиницы), Георгий Милляр (гостеприимный хозяин с рогом), Эммануил Геллер (торговец на рынке)
Описание:
Отправившись в одну из горных республик собирать фольклор, герой фильма Шурик влюбляется в симпатичную девушку - «спортсменку, отличницу, и просто красавицу». Но ее неожиданно похищают, чтобы насильно выдать замуж.
Наивный Шурик не сразу смог сообразить, что творится у него под носом, - однако затем отважно ринулся освобождать «кавказскую пленницу»...
Рейтинг
imdb.com: 7.90 (3 844)
Качество видео: BDRip 1080p | Sample
Формат видео: MKV
Исходник: BD
Видео: AVC; 1472x1080 (4:3); 7837 Kbps; 23,976 fps; 0,206 bpp
Аудио: русский; AC3; 448 Kbps; CBR; 6 ch; 16 bit
Доп. информация: Полная реставрация изображения и звука. Исходные киноматериалы подготовлены Госфильмофондом России. Покадровая цифровая реставрация изображения, ремастеринг звука и авторинг проведены объединением «Крупный план».

Media Info

Общее
Уникальный идентификатор : 193812646643927918603508389567384071066 (0x91CEF53DFF37CC93AF7BDBB004BD2B9A)
Полное имя : E:BDKavkazskaia_plenica_BDRip_1080_[Youtracker]_ot_Дядя_Лёша.mkv
Формат : Matroska
Версия формата : Version 4 / Version 2
Размер файла : 4,62 Гбайт
Продолжительность : 1 ч. 19 м.
Общий поток : 8287 Кбит/сек
Дата кодирования : UTC 2013-04-08 03:09:46
Программа кодирования : mkvmerge v6.1.0 ('Old Devil') built on Mar 2 2013 14:32:37
Библиотека кодирования : libebml v1.3.0 + libmatroska v1.4.0
Видео
Идентификатор : 1
Формат : AVC
Формат/Информация : Advanced Video Codec
Профиль формата : High@L4.1
Параметр CABAC формата : Да
Параметр ReFrames формата : 5 кадров
Идентификатор кодека : V_MPEG4/ISO/AVC
Продолжительность : 1 ч. 19 м.
Битрейт : 7837 Кбит/сек
Ширина : 1472 пикселя
Высота : 1080 пикселей
Соотношение сторон : 4:3
Режим частоты кадров : Постоянный
Частота кадров : 23,976 кадра/сек
Цветовое пространство : YUV
Субдискретизация насыщенности : 4:2:0
Битовая глубина : 8 бит
Тип развёртки : Прогрессивная
Бит/(Пиксели*Кадры) : 0.206
Размер потока : 4,28 Гбайт (93%)
Библиотека кодирования : x264 core 130 r2273 b3065e6
Настройки программы : cabac=1 / ref=5 / deblock=1:-3:-3 / analyse=0x3:0x133 / me=umh / subme=10 / psy=1 / psy_rd=1.00:0.15 / mixed_ref=1 / me_range=24 / chroma_me=1 / trellis=2 / 8x8dct=1 / cqm=0 / deadzone=21,11 / fast_pskip=1 / chroma_qp_offset=-3 / threads=9 / lookahead_threads=1 / sliced_threads=0 / nr=0 / decimate=1 / interlaced=0 / bluray_compat=0 / constrained_intra=0 / bframes=8 / b_pyramid=2 / b_adapt=2 / b_bias=0 / direct=3 / weightb=1 / open_gop=0 / weightp=2 / keyint=240 / keyint_min=22 / scenecut=40 / intra_refresh=0 / rc_lookahead=40 / rc=2pass / mbtree=1 / bitrate=7837 / ratetol=1.0 / qcomp=0.60 / qpmin=10 / qpmax=51 / qpstep=4 / cplxblur=20.0 / qblur=0.5 / ip_ratio=1.40 / aq=1:1.00
Язык : English
Default : Да
Forced : Нет
Аудио
Идентификатор : 2
Формат : AC-3
Формат/Информация : Audio Coding 3
Расширение режима : CM (complete main)
Параметр Endianness формата : Big
Идентификатор кодека : A_AC3
Продолжительность : 1 ч. 19 м.
Вид битрейта : Постоянный
Битрейт : 448 Кбит/сек
Каналы : 6 каналов
Расположение каналов : Front: L C R, Side: L R, LFE
Частота : 48,0 КГц
Битовая глубина : 16 бит
Метод сжатия : С потерями
Размер потока : 256 Мбайт (5%)
Язык : Russian
Default : Да
Forced : Нет

Скриншоты

Знаете ли вы, что...

• Советская цензура запретила следующую вступительную сцену фильма, которую придумали Гайдай и Никулин: Трус подходит к дощатому забору и, озираясь, чертит мелом букву «Х». Следом появляется Балбес и дописывает букву «У». Увидевший это безобразие милиционер заливается трелью свиста. Но Балбес, не растерявшись, дописывает: «Художественный фильм».
• Идея фильма родилась после того, как Гайдай прочитал в одной из газет историю о похищении девушки влюбленным джигитом в закавказской республике.
• Гайдай сразу хотел снимать своего друга Юрия Никулина и придумал для него роль. Но тот пошел в отказ: «В наши дни воруют невесту? Глупость! Сниматься не буду». Гайдаю удалось уговорить Никулина, пообещав вместе улучшить сценарий.
• На съемках распалась троица Вицин — Моргунов — Никулин. Артисты и так не дружили. А тут зазвездивший Моргунов стал вести себя беспардонно. Однажды привел на просмотр подружек, они пили пиво и громко разговаривали. Режиссер потребовал вывести посторонних, Моргунов вспылил и отказался сниматься. Пришлось часть сцен с Моргуновым выкинуть, а часть снимать общими планами, заменив актера похожим по телосложению дублером.
• У Натальи Варлей не получилось озвучить свою героиню Нину. «Пленница» говорит голосом Надежды Румянцевой.
• Все актеры во время съемок как сумасшедшие старались придумать смешные фокусы. А все Гайдай: он создал «золотой фонд» из шампанского и за каждый придуманный трюк выдавал автору бутылку.
• Для съемок сцены «прививки» Никулин предложил колоть Бывалого цирковым супершприцем («жанэ»). Конечно, его не втыкали в мягкое место Моргунова. Актера уложили с подушкой между ног. Несмотря на все меры предосторожности, Евгений Александрович сначала не хотел рисковать, но потом сдался: «Колите, черт с вами… Но там же все рядом, и если что…» Все прошло отлично: Александр Демьяненко оказался легок на руку и не промазал, сделав семь дублей!
• Фокус с поворотом головы Вицина на сто восемьдесят градусов снимали в несколько приемов. Первый: Вицин, опустив папаху на лицо, шевелит пальцами рук, сложенными на груди, — камера снимает, останавливается. Второй: Вицин надевает пиджак задом наперед, папаха на лице, пальцы шевелятся — камера снимает, останавливается. А эти кадры «разбиваются» еще одним куском, где снят затылок Георгия Михайловича: сначала под папахой, а потом когда ее сдвигают кверху.
• Цензура забраковала и эпизод, когда Фрунзик Мкртчян на реплику «жены», мол, как же ты мог украсть такую девушку, отвечает: «А в соседнем районе жених украл члена партии!». Выход нашел Никулин: «Все дело в акценте Мкртчяна. Давай я за него скажу». В устах Балбеса, сплевывающего арбузные семечки, фраза прозвучала настолько по-дурацки, что не бросала тени ни на единого партийца. Сразу всем становилось ясно: Балбес — лжец, и нет правды в словах его.
• Первоначально фильм был запрещен. Совершенно случайно его посмотрел Леонид Ильич Брежнев и дал разрешение на показ.
• Песенку про медведей исполняет Аида Ведищева.
• Фамилия Саахов для героя Владимира Этуша была изменена почти перед съёмками. В сценарии героя зовут Ахотов.
• Из песни, исполняемой Юрием Никулиным, «Если б я был султан…» были выброшены второй и третий куплеты, но позднее, когда вышла пластинка с песнями из кинофильма, песня была записана на ней целиком.
• Фильм снимался в Крыму (что можно заметить, например, по крымским номерам на машинах), в Алуште, окрестностях Демерджи, в районе Массандры и Ай-Петри и на Кавказе в Красной поляне (невольное купание в горной речке).
• В сцене торга в кабинете Саахова, герой Мкртчяна говорит фразу - «Но ведь ты же не козу получаешь!». В этой фразе слово «получаешь» озвучил другой актер.
• В сцене, где троица Вицин-Моргунов-Никулин пьёт пиво, Вицин будучи заядлым трезвенником, глотнул-таки настоящего пива.
• Первоначально фильм должен был состоять из 2 новелл: первая - «Кавказская пленница», вторая - «Снежный человек и другие», где за снежного человека себя выдаёт троица в лице Труса, Балбеса и Бывалого, чтобы сбить со следа милицию.
• Занимает по посещаемости 4-е место среди отечественных фильмов за всю историю советского кинопроката.
• Эпизод, где героиня Натальи Варлей должна была несколько минут заразительно хохотать, не получался. Тогда Никулин, Вицин и Моргунов во время съемки вдруг задрали майки и стали чесать животы, корча при этом уморительные рожи.
• Наталье Варлей пришлось научиться водить машину и самой выполнять сложные каскадерские трюки.
• Поначалу для эпизода, в котором Шурик в спальном мешке падает в горную речку, а Нина бросается его спасать, пригласили девушку-каскадера, но та неожиданно для всех начала... тонуть. Оказалось, девушка так сильно хотела сниматься в кино и соврала, что умеет плавать. Наталья Варлей все сделала сама.
• Тот момент, когда Нина и Шурик на берегу трясутся от холода, не был постановочным - вода действительно была ледяной. А чтобы артисты не заболели, после крика «Стоп!» парочку напоили чистым спиртом.
• А уже под конец съемок чуть не пришлось переозвучивать половину фильма. Секретарь партийной организации «Мосфильма» носил фамилию Сааков. А в фильме был товарищ Саахов. Реальный Сааков посчитал, что появление в картине Саахова - скрытая издевка. И повелел фамилию заменить. Ситуацию спас Никулин. Он добрался до министра культуры СССР Екатерины Фурцевой и пожаловался, что по прихоти одного-единственного человека придется тратить громадные государственные деньги. Фурцева решила проблему одним звонком на студию: «Прекратите этот идиотизм!»
• Дерево старого грецкого ореха под Демерджи, на котором сидел герой Никулина и кидал орехи, после премьеры фильма стал своеобразной достопримичательностью Крыма, и получил название «Никулинский Орех». Это дерево находится возле южного склона горы Демерджи, рядом с известной «Долиной Привидений».

Иван Васильевич меняет профессию(1973) BDRip 1080p

Информация о фильме
Название: Иван Васильевич меняет профессию
Год выхода: 1973
Жанр: фантастика, комедия, приключения, семейный
Режиссер: Леонид Гайдай
В ролях: Александр Демьяненко, Юрий Яковлев, Леонид Куравлёв, Наталья Крачковская, Савелий Крамаров, Наталья Селезнёва, Владимир Этуш, Михаил Пуговкин, Сергей Филиппов, Наталья Кустинская
О фильме:
Инженер-изобретатель Тимофеев сконструировал машину времени, которая соединила его квартиру с далеким шестнадцатым веком - точнее, с палатами государя Ивана Грозного. Туда-то и попадают тезка царя пенсионер-общественник Иван Васильевич Бунша и квартирный вор Жорж Милославский.
На их место в двадцатом веке «переселяется» великий государь. Поломка машины приводит ко множеству неожиданных и забавных событий...
Страна: СССР
Продолжительность: 01:31:38
Перевод: Оригинал
Файл
Кодек: x.264
Качество: BDRip 1080p
Видео: 6400 kb/s, 1472x1080, 23.976 fps
Звук: AC3, 384 kb/s (6Ch)
Субтитры: нет
Сохранены оригинальные чаптеры Blu-Ray

Информация по видеофайлу

Format : Matroska
Format version : Version 2
File size : 4.36 GiB
Duration : 1 h 31 min
Overall bit rate : 6 813 kb/s
Movie name : Иван Васильевич меняет профессию (1973) BDRip 1080p-Rip by Neofilm for Neoclub.net
Encoded date : UTC 2011-03-13 05:33:54
Writing application : mkvmerge v4.1.1 ('Bouncin' Back') сборка от Jul 3 2010 22:54:08
Writing library : libebml v1.0.0 + libmatroska v1.0.0
Video
ID : 1
Format : AVC
Format/Info : Advanced Video Codec
Format profile : High@L4.1
Format settings : CABAC / 4 Ref Frames
Format settings, CABAC : Yes
Format settings, Reference fra : 4 frames
Codec ID : V_MPEG4/ISO/AVC
Duration : 1 h 31 min
Bit rate : 6 400 kb/s
Width : 1 472 pixels
Height : 1 080 pixels
Display aspect ratio : 4:3
Frame rate mode : Constant
Frame rate : 23.976 FPS
Color space : YUV
Chroma subsampling : 4:2:0
Bit depth : 8 bits
Scan type : Progressive
Bits/(Pixel*Frame) : 0.168
Stream size : 4.03 GiB (92%)
Title : Иван Васильевич меняет профессию (1973)
Writing library : x264 core 112 r1867 22bfd31
Encoding settings : cabac=1 / ref=4 / deblock=1:-3:-3 / analyse=0x3:0x113 / me=umh / subme=9 / psy=1 / psy_rd=1.05:0.05 / mixed_ref=1 / me_range=32 / chroma_me=1 / trellis=2 / 8x8dct=1 / cqm=0 / deadzone=21,11 / fast_pskip=0 / chroma_qp_offset=-3 / threads=6 / sliced_threads=0 / nr=0 / decimate=0 / interlaced=0 / constrained_intra=0 / bframes=2 / b_pyramid=2 / b_adapt=2 / b_bias=0 / direct=3 / weightb=1 / open_gop=0 / weightp=2 / keyint=250 / keyint_min=23 / scenecut=40 / intra_refresh=0 / rc_lookahead=40 / rc=abr / mbtree=1 / bitrate=6400 / ratetol=1.5 / qcomp=0.60 / qpmin=10 / qpmax=51 / qpstep=4 / vbv_maxrate=40000 / vbv_bufsize=40000 / nal_hrd=none / ip_ratio=1.40 / aq=1:1.00
Language : Russian
Default : Yes
Forced : No
Audio
ID : 2
Format : AC-3
Format/Info : Audio Coding 3
Commercial name : Dolby Digital
Codec ID : A_AC3
Duration : 1 h 31 min
Bit rate mode : Constant
Bit rate : 384 kb/s
Channel(s) : 6 channels
Channel layout : L R C LFE Ls Rs
Sampling rate : 48.0 kHz
Frame rate : 31.250 FPS (1536 SPF)
Compression mode : Lossy
Stream size : 252 MiB (6%)
Title : Оригинал
Language : Russian
Service kind : Complete Main
Default : Yes
Forced : No
Menu
00:00:00.000 : en:Chapter 00
00:08:01.689 : en:Chapter 01
00:12:06.684 : en:Chapter 02
00:17:05.566 : en:Chapter 03
00:22:05.699 : en:Chapter 04
00:27:41.660 : en:Chapter 05
00:31:35.810 : en:Chapter 06
00:37:12.313 : en:Chapter 07
00:46:36.126 : en:Chapter 08
00:49:43.063 : en:Chapter 09
00:59:18.638 : en:Chapter 10
01:06:17.098 : en:Chapter 11
01:09:48.225 : en:Chapter 12
01:18:32.624 : en:Chapter 13
01:23:40.015 : en:Chapter 14
01:28:22.672 : en:Chapter 15

Скриншоты

Показать сообщения:    

Текущее время: 01-Дек 19:35

Часовой пояс: UTC - 5



Вы не можете начинать темы
Вы не можете отвечать на сообщения
Вы не можете редактировать свои сообщения
Вы не можете удалять свои сообщения
Вы не можете голосовать в опросах
Вы не можете прикреплять файлы к сообщениям
Вы не можете скачивать файлы