Marvels Agent Carter 1,2 seasons / Агент Картер 1-2 Сезон (2015-2016) - LostFilm.TV [1080p]

Статистика раздачи

Нет
 
     
 
 
Автор Сообщение

Admin ®

Не в сети

2

VIP пользователь

Пол: Мужской

Стаж: 4 года 1 месяц

Сообщений: 118

Карма: 787

[+]

Провайдер: UzOnline UzOnline

Тарифный план: UNLIME 20 Mbit/sekund

Наличие запрета:



Награды: Нет

[Профиль] ЛС

Создавать темы 22-Май-2020 02:04

Цитировать

Marvels Agent Carter / Агент Картер
Качество: WEB-DLRip / WEB-DL 1080p 2 Сезон 10 Серий
Создан в: 2015-2016 году
Страны: США
Название сериала: Агент Картер
Иностранное название: Agent Carter
Категория / Жанр: фантастика, боевик, приключения
Главный режиссер: Луис Д’Эспозито, Питер Лето, Джо Руссо
Актеры: Хейли Этвелл, Ши Уигхэм, Линдси Фонсека, Кайл Борнхаймер, Меган Фэй, Бриджет Риган, Александр Кэрролл, Джеймс Хеберт, Лесли Бун, Джеймс Д’Арси
Рейтинг КиноПоиска: 8.000 (123)
Описание сериала:
Все считают, что одинокая симпатичная девушка Пегги Картер работает телефонисткой. Но на самом деле она выполняет тяжелую и смертельно опасную мужскую работу супер агента секретной организации СНР. Стратегический Научный Резерв вынужден привлекат для работы женщин, ведь большинство мужчин находятся на войне. Но Пегги успешно справляется со своими обязанностями, не давая не единого шанса противнику. Однако в личной жизни у нее не все так гладко...

Агент Картер / Agent Carter (2015) WEB-DL 1080p 8 Серий из 8 LostFilm

Перевод / Озвучка: Профессиональный многоголосный - LostFilm
Время / Продолжительность серии: ~ 00:41:00
Информация о видео-файле:
Формат: MKV
Видео: MPEG-4 AVC, ~ 5200 Kb/s, 1920x1080
Аудио: Russian: AC3, 192 Kb/s (2 ch) / English: AC3, 384 Kb/s (6 ch)
Субтитры: английские

Дата выхода новых серий / Агент Картер / 1 Сезон

1 сезон 8 серия Valediction 24 фев 2015, Вт ✔
1 сезон 7 серия Snafu 17 фев 2015, Вт ✔
1 сезон 6 серия A Sin to Err 10 фев 2015, Вт ✔
1 сезон 5 серия The Iron Ceiling 3 фев 2015, Вт ✔
1 сезон 4 серия The Blitzkrieg Button 27 янв 2015, Вт ✔
1 сезон 3 серия Time and Tide 13 янв 2015, Вт ✔
1 сезон 2 серия Bridge and Tunnel 6 янв 2015, Вт ✔
1 сезон 1 серия Now Is Not the End 6 янв 2015, Вт ✔

Информация по видеофайлу

Format : Matroska
Format version : Version 2
File size : 1.80 GiB
Duration : 42 min 46 s
Overall bit rate : 6 010 kb/s
Encoded date : UTC 2015-01-10 01:11:04
Writing application : mkvmerge v4.2.0 ('No Talking') сборка от Jul 28 2010 18:38:23
Writing library : libebml v1.0.0 + libmatroska v1.0.0
Video
ID : 1
Format : AVC
Format/Info : Advanced Video Codec
Format profile : High@L4
Format settings : CABAC / 2 Ref Frames
Format settings, CABAC : Yes
Format settings, Reference fra : 2 frames
Codec ID : V_MPEG4/ISO/AVC
Duration : 42 min 46 s
Bit rate : 5 242 kb/s
Width : 1 920 pixels
Height : 1 080 pixels
Display aspect ratio : 16:9
Frame rate mode : Constant
Frame rate : 23.976 (23976/1000) FPS
Color space : YUV
Chroma subsampling : 4:2:0
Bit depth : 8 bits
Scan type : Progressive
Bits/(Pixel*Frame) : 0.105
Stream size : 1.53 GiB (85%)
Writing library : x264 core 112 r1834 a51816a
Encoding settings : cabac=1 / ref=1 / deblock=1:0:0 / analyse=0x3:0x133 / me=umh / subme=7 / psy=1 / psy_rd=1.00:0.00 / mixed_ref=0 / me_range=16 / chroma_me=1 / trellis=1 / 8x8dct=1 / cqm=0 / deadzone=21,11 / fast_pskip=1 / chroma_qp_offset=-2 / threads=6 / sliced_threads=0 / nr=0 / decimate=1 / interlaced=0 / constrained_intra=0 / bframes=5 / b_pyramid=0 / b_adapt=1 / b_bias=0 / direct=3 / weightb=1 / open_gop=0 / weightp=2 / keyint=250 / keyint_min=25 / scenecut=40 / intra_refresh=0 / rc_lookahead=40 / rc=2pass / mbtree=1 / bitrate=5242 / ratetol=1.0 / qcomp=0.60 / qpmin=0 / qpmax=51 / qpstep=4 / cplxblur=20.0 / qblur=0.5 / ip_ratio=1.40 / aq=1:1.00
Default : Yes
Forced : No
Audio #1
ID : 2
Format : AC-3
Format/Info : Audio Coding 3
Commercial name : Dolby Digital
Codec ID : A_AC3
Duration : 42 min 46 s
Bit rate mode : Constant
Bit rate : 384 kb/s
Channel(s) : 2 channels
Channel layout : L R
Sampling rate : 48.0 kHz
Frame rate : 31.250 FPS (1536 SPF)
Compression mode : Lossy
Stream size : 117 MiB (6%)
Service kind : Complete Main
Default : Yes
Forced : No
Audio #2
ID : 3
Format : AC-3
Format/Info : Audio Coding 3
Commercial name : Dolby Digital
Codec ID : A_AC3
Duration : 42 min 46 s
Bit rate mode : Constant
Bit rate : 384 kb/s
Channel(s) : 2 channels
Channel layout : L R
Sampling rate : 48.0 kHz
Frame rate : 31.250 FPS (1536 SPF)
Compression mode : Lossy
Stream size : 117 MiB (6%)
Service kind : Complete Main
Default : No
Forced : No

Скриншоты

Агент Картер / Agent Carter 2 Сезон (2016) WEB-DL 1080p 10 Серий из 10 LostFilm

Перевод / Озвучка: Профессиональный многоголосный - LostFilm
Время / Продолжительность серии: ~ 00:42:00
Информация о видео-файле:
Видео: MPEG-4 AVC, ~ 5000 Кбит/с, 1920x1080
Аудио: Русский (AC3, 2 ch, 384 Кбит/с), английский (AC3, 6 ch, 384 Кбит/с)

Дата выхода новых серий / Агент Картер / 2 Сезон

2 сезон 10 серия Hollywood Ending 1 мар 2016, Вт ✔
2 сезон 9 серия A Little Song and Dance 23 фев 2016, Вт ✔
2 сезон 8 серия The Edge of Mystery 23 фев 2016, Вт ✔
2 сезон 7 серия Monsters 16 фев 2016, Вт ✔
2 сезон 6 серия Life of the Party 16 фев 2016, Вт ✔
2 сезон 5 серия The Atomic Job 9 фев 2016, Вт ✔
2 сезон 4 серия Smoke & Mirrors 2 фев 2016, Вт ✔
2 сезон 3 серия Better Angels 26 янв 2016, Вт ✔
2 сезон 2 серия A View in the Dark 19 янв 2016, Вт ✔
2 сезон 1 серия The Lady in the Lake 19 янв 2016, Вт ✔

Информация по видеофайлу

Format : Matroska
Format version : Version 2
File size : 1.80 GiB
Duration : 42 min 46 s
Overall bit rate : 6 010 kb/s
Encoded date : UTC 2015-01-10 01:11:04
Writing application : mkvmerge v4.2.0 ('No Talking') сборка от Jul 28 2010 18:38:23
Writing library : libebml v1.0.0 + libmatroska v1.0.0
Video
ID : 1
Format : AVC
Format/Info : Advanced Video Codec
Format profile : High@L4
Format settings : CABAC / 2 Ref Frames
Format settings, CABAC : Yes
Format settings, Reference fra : 2 frames
Codec ID : V_MPEG4/ISO/AVC
Duration : 42 min 46 s
Bit rate : 5 242 kb/s
Width : 1 920 pixels
Height : 1 080 pixels
Display aspect ratio : 16:9
Frame rate mode : Constant
Frame rate : 23.976 (23976/1000) FPS
Color space : YUV
Chroma subsampling : 4:2:0
Bit depth : 8 bits
Scan type : Progressive
Bits/(Pixel*Frame) : 0.105
Stream size : 1.53 GiB (85%)
Writing library : x264 core 112 r1834 a51816a
Encoding settings : cabac=1 / ref=1 / deblock=1:0:0 / analyse=0x3:0x133 / me=umh / subme=7 / psy=1 / psy_rd=1.00:0.00 / mixed_ref=0 / me_range=16 / chroma_me=1 / trellis=1 / 8x8dct=1 / cqm=0 / deadzone=21,11 / fast_pskip=1 / chroma_qp_offset=-2 / threads=6 / sliced_threads=0 / nr=0 / decimate=1 / interlaced=0 / constrained_intra=0 / bframes=5 / b_pyramid=0 / b_adapt=1 / b_bias=0 / direct=3 / weightb=1 / open_gop=0 / weightp=2 / keyint=250 / keyint_min=25 / scenecut=40 / intra_refresh=0 / rc_lookahead=40 / rc=2pass / mbtree=1 / bitrate=5242 / ratetol=1.0 / qcomp=0.60 / qpmin=0 / qpmax=51 / qpstep=4 / cplxblur=20.0 / qblur=0.5 / ip_ratio=1.40 / aq=1:1.00
Default : Yes
Forced : No
Audio #1
ID : 2
Format : AC-3
Format/Info : Audio Coding 3
Commercial name : Dolby Digital
Codec ID : A_AC3
Duration : 42 min 46 s
Bit rate mode : Constant
Bit rate : 384 kb/s
Channel(s) : 2 channels
Channel layout : L R
Sampling rate : 48.0 kHz
Frame rate : 31.250 FPS (1536 SPF)
Compression mode : Lossy
Stream size : 117 MiB (6%)
Service kind : Complete Main
Default : Yes
Forced : No
Audio #2
ID : 3
Format : AC-3
Format/Info : Audio Coding 3
Commercial name : Dolby Digital
Codec ID : A_AC3
Duration : 42 min 46 s
Bit rate mode : Constant
Bit rate : 384 kb/s
Channel(s) : 2 channels
Channel layout : L R
Sampling rate : 48.0 kHz
Frame rate : 31.250 FPS (1536 SPF)
Compression mode : Lossy
Stream size : 117 MiB (6%)
Service kind : Complete Main
Default : No
Forced : No

Скриншоты

Показать сообщения:    

Текущее время: 11-Июл 01:58

Часовой пояс: UTC - 5



Вы не можете начинать темы
Вы не можете отвечать на сообщения
Вы не можете редактировать свои сообщения
Вы не можете удалять свои сообщения
Вы не можете голосовать в опросах
Вы не можете прикреплять файлы к сообщениям
Вы не можете скачивать файлы