ARISTOKRATLAR jamoasi konsert dasturi (2020) 1080p

Статистика раздачи

Скачал: [ 1 ]
 
     
 
 
Автор Сообщение

#Maksadjon_17 ®

Не в сети

5497

Пол: Мужской

Стаж: 8 месяцев 2 дня

Сообщений: 13

Карма: 20

[+]

Провайдер: UzOnline UzOnline

Наличие запрета:



Награды: Нет

[Профиль] ЛС

Создавать темы 23-Май-2020 13:48

Цитировать

ARISTOKRATLAR jamoasi konsert dastur -Chiqqan yili: 2020
Davlat: O'zbekiston
Janr: Kulgu, oilaviy
Davomiyligi: 02:44:53-Video sifati: WEBRip, 1080p
Video format: MP4
Video: AVC, 1920 x 1080 (1.778) at 25.000 fps
Audio: AAC, 48.0 kHz, 2 ch, 128 kbps, Uzbek-

Media Info

General
Complete name : J:\ARISTOKRATLAR JAMOASI KONSERT DASTURI 2020.mp4
Format : MPEG-4
Format profile : Base Media
Codec ID : isom (isom/iso2/avc1/mp41)
File size : 4.41 GiB
Duration : 2 h 44 min
Overall bit rate mode : Variable
Overall bit rate : 3 833 kb/s
Encoded date : UTC 2020-05-23 11:25:23
Tagged date : UTC 2020-05-23 11:25:23
Video
ID : 1
Format : AVC
Format/Info : Advanced Video Codec
Format profile : High@L4
Format settings : CABAC / 3 Ref Frames
Format settings, CABAC : Yes
Format settings, Reference frames : 3 frames
Codec ID : avc1
Codec ID/Info : Advanced Video Coding
Duration : 2 h 44 min
Bit rate : 3 702 kb/s
Width : 1 920 pixels
Height : 1 080 pixels
Display aspect ratio : 16:9
Frame rate mode : Constant
Frame rate : 25.000 FPS
Color space : YUV
Chroma subsampling : 4:2:0
Bit depth : 8 bits
Scan type : Progressive
Bits/(Pixel*Frame) : 0.071
Stream size : 4.26 GiB (97%)
Title : ISO Media file produced by Google Inc.
Encoded date : UTC 2020-05-23 11:25:23
Tagged date : UTC 2020-05-23 11:25:23
Color range : Limited
Color primaries : BT.709
Transfer characteristics : BT.709
Matrix coefficients : BT.709
Codec configuration box : avcC
Audio
ID : 2
Format : AAC LC
Format/Info : Advanced Audio Codec Low Complexity
Codec ID : mp4a-40-2
Duration : 2 h 44 min
Bit rate mode : Variable
Bit rate : 128 kb/s
Channel(s) : 2 channels
Channel layout : L R
Sampling rate : 44.1 kHz
Frame rate : 43.066 FPS (1024 SPF)
Compression mode : Lossy
Stream size : 151 MiB (3%)
Title : ISO Media file produced by Google Inc.
Language : English
Default : Yes
Alternate group : 1
Encoded date : UTC 2020-05-23 13:58:36
Tagged date : UTC 2020-05-23 13:58:36

Lavhalar

Показать сообщения:    

Текущее время: 02-Июл 11:47

Часовой пояс: UTC - 5



Вы не можете начинать темы
Вы не можете отвечать на сообщения
Вы не можете редактировать свои сообщения
Вы не можете удалять свои сообщения
Вы не можете голосовать в опросах
Вы не можете прикреплять файлы к сообщениям
Вы не можете скачивать файлы