Регистрация ·
Имя: Пароль:  
· Забыли пароль? · Вопросы от гостей
Ko'd 211
O'zbek + Rus + Ing
BluRay 1080p
Интрижка
iTunes
WEB-DLRip
WarFace
Лицензия
Русский
Хоббит / Властелин колец
Коллекция
BDRip 1080p H264
SamDrivers
x32/x64
Repack
Чудесный доктор
WEB-DL 1080p
Турция
Острые козырьки
H265 1080p BluRay
Uzb+Ing
S.T.A.L.K.E.R
Анталогия
Repack
Зов джунглей
Рус
WEB-DL 1080p
Ajal Poygasi
Uzb Rus Ing
BrRip 1080p H264
Yengilmas Gvardiya
O'zbek Tilida
WEB-DL 1080p H264
Suv va Olov
O'zbek Tilida
BDRip H264
S.T.A.L.K.E.R.
Анталогия Модов
GSC Game World
GTA 5
RePack
Лицензия
Tunnel: Hayot uchun xavfli
Uzb Tilida
WEB-DL 1080p
Уважаемые гости сайта! Добро Пожаловать на наш торрент трекер,где Вы можете бесплатно скачать любой Софт,Фильмы,Музыку и многое другое! А так же постоянно ведется набор модераторов и релизеров. Зарегистрируйтесь сейчас, чтобы получить доступ ко всем функциям. После регистрации или входа на сайт вы сможете создавать темы, отвечать на сообщения и скачивать файлы.

Проклятие ведьмы снов / Curse of the Dream Witch (Грифф Ферст, Нэйтан Ферст / Griff First, Nathan First) [2018, Ужасы, фантастика, фэнтези, боевик, триллер, детектив, приключения, WEB-DL 1080p] Лицензия

Статистика раздачи
Нет
 
     
 
 
Автор Сообщение

NuRKHoNoFF ®

Не в сети

5408

VIP пользователь

Пол: Мужской

Стаж: 1 год 1 месяц

Сообщений: 121

Откуда: Каттакурган

Карма: 1010

[+]

Провайдер: Skyline Skyline

Наличие запрета:



Награды: Нет

[Профиль] ЛС

Создавать темы 01-Июл-2020 10:08

Цитировать

Проклятие ведьмы снов / Curse of the Dream Witch -Год выпуска: 2018
Страна: США
Жанр: Ужасы, фантастика, фэнтези, боевик, триллер, детектив, приключения
Продолжительность: 01:21:15
Перевод: Профессиональный (многоголосый, закадровый) [IVI]-Режиссер: Грифф Ферст, Нэйтан Ферст / Griff First, Nathan First-В ролях: Тони Амендола, Бобби Кампо, Рэйчел Брук Смит, Лулу Йовович, Caroline Cole, Ник МакКаллум, Томас Иэн Николас, Addie Whittle, Jake Chiasson, Алекс Аристидис-Описание: Когда друзей начинает мучить один и тот же ночной кошмар, они отправляются на поиски избавления от этого странного недуга. Но поездка оказывается страшнее их снов.
- -Качество: WEB-DL 1080p
Формат: MKV
Видео: AVC, 5120 Кb/s, 1920x1080
Аудио: AC3, 2 ch, 256 kb/s-

MediaInfo

Complete name : Proklyatie.vedmyi.snov.2018.WEB-DL.1080p.ELEKTRI4KA.UNIONGANG.mkv
Format : Matroska
Format version : Version 4 / Version 2
File size : 3.04 GiB
Duration : 1 h 21 min
Overall bit rate : 5 360 kb/s
Movie name : .ELEKTRI4KA.UNIONGANG.
Encoded date : UTC 2020-07-01 10:11:44
Writing application : mkvmerge v8.3.0 ('Over the Horizon') 64bit
Writing library : libebml v1.3.1 + libmatroska v1.4.2
Video
ID : 1
Format : AVC
Format/Info : Advanced Video Codec
Format profile : High@L4
Format settings, CABAC : Yes
Format settings, Reference frames : 4 frames
Codec ID : V_MPEG4/ISO/AVC
Duration : 1 h 21 min
Bit rate : 5 120 kb/s
Width : 1 920 pixels
Height : 1 080 pixels
Display aspect ratio : 16:9
Frame rate mode : Constant
Frame rate : 25.000 FPS
Color space : YUV
Chroma subsampling : 4:2:0
Bit depth : 8 bits
Scan type : Progressive
Bits/(Pixel*Frame) : 0.099
Stream size : 2.90 GiB (95%)
Title : .ELEKTRI4KA.UNIONGANG.
Writing library : x264 core 148
Encoding settings : cabac=1 / ref=3 / deblock=1:0:0 / analyse=0x3:0x113 / me=hex / subme=7 / psy=1 / psy_rd=1.00:0.00 / mixed_ref=1 / me_range=16 / chroma_me=1 / trellis=1 / 8x8dct=1 / cqm=0 / deadzone=21,11 / fast_pskip=1 / chroma_qp_offset=-2 / threads=34 / lookahead_threads=5 / sliced_threads=0 / nr=0 / decimate=1 / interlaced=0 / bluray_compat=0 / constrained_intra=0 / bframes=6 / b_pyramid=2 / b_adapt=1 / b_bias=0 / direct=1 / weightb=1 / open_gop=0 / weightp=2 / keyint=50 / keyint_min=26 / scenecut=0 / intra_refresh=0 / rc_lookahead=40 / rc=2pass / mbtree=1 / bitrate=5120 / ratetol=1.0 / qcomp=0.60 / qpmin=0 / qpmax=69 / qpstep=4 / cplxblur=20.0 / qblur=0.5 / vbv_maxrate=7680 / vbv_bufsize=20480 / nal_hrd=none / filler=0 / ip_ratio=1.40 / aq=1:1.00
Default : Yes
Forced : No
Audio
ID : 2
Format : AC-3
Format/Info : Audio Coding 3
Mode extension : CM (complete main)
Format settings, Endianness : Big
Codec ID : A_AC3
Duration : 1 h 21 min
Bit rate mode : Constant
Bit rate : 256 kb/s
Channel(s) : 2 channels
Channel positions : Front: L R
Sampling rate : 48.0 kHz
Frame rate : 31.250 FPS (1536 spf)
Bit depth : 16 bits
Compression mode : Lossy
Stream size : 149 MiB (5%)
Title : IVI
Language : Russian
Default : Yes
Forced : No

_________________
Показать сообщения:    

Текущее время: 09-Авг 15:29

Часовой пояс: UTC - 5



Вы не можете начинать темы
Вы не можете отвечать на сообщения
Вы не можете редактировать свои сообщения
Вы не можете удалять свои сообщения
Вы не можете голосовать в опросах
Вы не можете прикреплять файлы к сообщениям
Вы не можете скачивать файлы