Регистрация ·
Имя: Пароль:  
· Забыли пароль? · Вопросы от гостей
Интрижка
iTunes
WEB-DLRip
WarFace
Лицензия
Русский
Хоббит / Властелин колец
Коллекция
BDRip 1080p H264
SamDrivers
x32/x64
Repack
Чудесный доктор
WEB-DL 1080p
Турция
Острые козырьки
H265 1080p BluRay
Uzb+Ing
S.T.A.L.K.E.R
Анталогия
Repack
Зов джунглей
Рус
WEB-DL 1080p
Ajal Poygasi
Uzb Rus Ing
BrRip 1080p H264
Yengilmas Gvardiya
O'zbek Tilida
WEB-DL 1080p H264
Suv va Olov
O'zbek Tilida
BDRip H264
S.T.A.L.K.E.R.
Анталогия Модов
GSC Game World
GTA 5
RePack
Лицензия
Tunnel: Hayot uchun xavfli
Uzb Tilida
WEB-DL 1080p
Уважаемые гости сайта! Добро Пожаловать на наш торрент трекер,где Вы можете бесплатно скачать любой Софт,Фильмы,Музыку и многое другое! А так же постоянно ведется набор модераторов и релизеров. Зарегистрируйтесь сейчас, чтобы получить доступ ко всем функциям. После регистрации или входа на сайт вы сможете создавать темы, отвечать на сообщения и скачивать файлы.

Пуленепробиваемый / Bulletproof (Эрнест Р. Дикерсон / Ernest R. Dickerson) [1996, Боевик, комедия, криминал, приключения, BDRip]

Статистика раздачи
Нет
 
     
 
 
Автор Сообщение

Robinzon1986 ®

Не в сети

5779

Пол: Мужской

Стаж: 1 месяц 5 дней

Сообщений: 21

Откуда: Узбекистан, Ташкент

Карма: 105

[+]

Провайдер: UzOnline UzOnline

Тарифный план: Unlim-6

Telegram: System_Dowloand

Наличие запрета:



Награды: 1 (Подробнее)

S.T.A.L.K.E.R (Количество: 1)
[Профиль] ЛС

Создавать темы 07-Июл-2020 00:40

Цитировать

Пуленепробиваемый / Bulletproof -Страна: США
Жанр: боевик, комедия, криминал, приключения
Год выпуска: 1996
Продолжительность: 01:24:23
Перевод: Профессиональный (дублированный) | Netflix-Субтитры: русские (forced)
Оригинальная аудиодорожка: нет-Режиссер: Эрнест Р. Дикерсон / Ernest R. Dickerson-В ролях: Дэймон Уайанс (Keats,), Адам Сэндлер (Moses,), Джеймс Каан (Colton), Джип Свенсон (Bledsoe), Джеймс Фарентино (Capt. Jensen), Кристен Уилсон (Traci), Ларри МакКой (Detective Sulliman), Аллен Коверт (Detective Jones), Билл Нанн (Finch), Марк Робертс (Charles), Марк Каселла (Disneyland Cop), Эндрю Шайфер (Cop at Airport)-Описание: Рок Китс и Арчи Моузес - лучшие друзья. Год назад Моузес, мелкий воришка и мошенник, взял Китса «в дело». С тех пор они не расставались и вместе совершили целый ряд небольших преступлений. Все меняется, когда друзья оказываются вовлеченными в крупномасштабную операцию, проводимую наркобароном Фрэнком Колтоном.
Рок Китс на самом деле оказывается агентом полиции, его настоящее имя Джек Картер. Полицейскому под прикрытием Картеру не удается арестовать организатора операции Колтона, поэтому он пытается арестовать своего друга Моузеса. Моузес стреляет в Картера и сбегает с места преступления. Вскоре полиция настигает Моузеса.
Он соглашается дать показания против наркобарона Колтона при одном условии: к месту проведения судебного слушания его должен проводить бывший друг Китс-Картер. Вскоре друзья встречаются вновь и вместе отправляются в опасное путешествие. Выживут ли они? Выживет ли их дружба?- -Качество видео: BDRip
Формат видео: AVI
Видео: 720x304 (2.37:1), 23.976 fps, XviD build 73 ~2011 kbps avg, 0.38 bit/pixel
Аудио: 48 kHz, AC3 Dolby Digital, 3/2 (L,C,R,l,r) + LFE ch, ~448 kbps-

MediaInfo

Формат : AVI
Формат/Информация : Audio Video Interleave
Размер файла : 1,45 Гбайт
Продолжительность : 1 ч. 24 м.
Общий поток : 2 468 Кбит/сек
Название фильма : Пуленепробиваемый_1996_BDRip
Программа кодирования : VirtualDubMod 1.5.10.3 | www.virtualdub-fr.org || (build 2550/release)
Авторское право : порошков
Видео
Идентификатор : 0
Формат : MPEG-4 Visual
Профиль формата : Advanced Simple@L5
Настройки формата : BVOP1 / Custom Matrix
Параметр BVOP формата : 1
Параметр QPel формата : Нет
Параметр GMC формата : Без точки перехода
Параметр матрицы формата : Выборочная
Идентификатор кодека : XVID
Идентификатор кодека/Подсказка : XviD
Продолжительность : 1 ч. 24 м.
Битрейт : 2 011 Кбит/сек
Ширина : 720 пикселей
Высота : 304 пикселя
Соотношение сторон : 2,35:1
Частота кадров : 23,976 (24000/1001) кадра/сек
Цветовое пространство : YUV
Субдискретизация насыщенности : 4:2:0
Битовая глубина : 8 бит
Тип развёртки : Прогрессивная
Метод сжатия : С потерями
Бит/(Пиксели*Кадры) : 0.383
Размер потока : 1,19 Гбайт (81%)
Библиотека кодирования : XviD 73
Аудио
Идентификатор : 1
Формат : AC-3
Формат/Информация : Audio Coding 3
Коммерческое название : Dolby Digital
Идентификатор кодека : 2000
Продолжительность : 1 ч. 24 м.
Вид битрейта : Постоянный
Битрейт : 448 Кбит/сек
Каналы : 6 каналов
Channel layout : L R C LFE Ls Rs
Частота : 48,0 КГц
Частота кадров : 31,250 кадров/сек (1536 SPF)
Метод сжатия : С потерями
Размер потока : 270 Мбайт (18%)
Выравнивание : Разделение по промежуткам
Продолжительность промежутка : 42 мс. (1,00 видеокадр)
Время предзагрузки промежутка : 500 мс.
Service kind : Complete Main
Показать сообщения:    

Текущее время: 06-Авг 20:37

Часовой пояс: UTC - 5



Вы не можете начинать темы
Вы не можете отвечать на сообщения
Вы не можете редактировать свои сообщения
Вы не можете удалять свои сообщения
Вы не можете голосовать в опросах
Вы не можете прикреплять файлы к сообщениям
Вы не можете скачивать файлы