Регистрация ·
Имя: Пароль:  
· Забыли пароль? · Вопросы от гостей
Интрижка
iTunes
WEB-DLRip
WarFace
Лицензия
Русский
Хоббит / Властелин колец
Коллекция
BDRip 1080p H264
SamDrivers
x32/x64
Repack
Чудесный доктор
WEB-DL 1080p
Турция
Острые козырьки
H265 1080p BluRay
Uzb+Ing
S.T.A.L.K.E.R
Анталогия
Repack
Зов джунглей
Рус
WEB-DL 1080p
Ajal Poygasi
Uzb Rus Ing
BrRip 1080p H264
Yengilmas Gvardiya
O'zbek Tilida
WEB-DL 1080p H264
Suv va Olov
O'zbek Tilida
BDRip H264
S.T.A.L.K.E.R.
Анталогия Модов
GSC Game World
GTA 5
RePack
Лицензия
Tunnel: Hayot uchun xavfli
Uzb Tilida
WEB-DL 1080p
Уважаемые гости сайта! Добро Пожаловать на наш торрент трекер,где Вы можете бесплатно скачать любой Софт,Фильмы,Музыку и многое другое! А так же постоянно ведется набор модераторов и релизеров. Зарегистрируйтесь сейчас, чтобы получить доступ ко всем функциям. После регистрации или входа на сайт вы сможете создавать темы, отвечать на сообщения и скачивать файлы.

Семь ужинов (Кирилл Плетнев) [2019, Комедия, WEB-DLRip-AVC] iTunes

Статистика раздачи
Нет
 
     
 
 
Автор Сообщение

NuRKHoNoFF ®

Не в сети

5408

VIP пользователь

Пол: Мужской

Стаж: 1 год 1 месяц

Сообщений: 121

Откуда: Каттакурган

Карма: 1010

[+]

Провайдер: Skyline Skyline

Наличие запрета:



Награды: Нет

[Профиль] ЛС

Создавать темы 07-Июл-2020 03:59

Цитировать

Семь ужинов -Год выпуска: 2019
Страна: Россия
Жанр: Комедия
Продолжительность: 01:29:44
Перевод: Русский [iTunes]-Режиссер: Кирилл Плетнев-В ролях: Роман Курцын, Полина Максимова, Елена Яковлева, Владимир Ильин, Петар Зекавица, Анастасия Уколова, Вера Гурьева, Александр Лыков-Описание: После пяти лет совместной жизни отношения супругов разваливаются: детей нет, любовь остыла, общих интересов практически не осталось. Когда жена просит развод, главный герой вдруг осознает, что не готов отпустить близкого человека и уговаривает жену протестировать будто бы разработанную им научную методику восстановления отношений.
- -Качество: WEB-DLRip-AVC
Формат: MKV
Видео: MPEG-4 AVC, 2100 Кбит/с, 1024x428
Аудио: AC3, 6 ch, 384 Кбит/с-

MediaInfo

General
Unique ID : 89672804994212246910641973580943732251 (0x43765AA1F16CAF8A34674A1A268E2E1B)
Complete name : Семь ужинов (2019) WEB-DLRip-AVC (Лиц).mkv
Format : Matroska
Format version : Version 4
File size : 1.56 GiB
Duration : 1 h 29 min
Overall bit rate : 2 486 kb/s
Encoded date : UTC 2019-03-14T15:02:12Z
Writing application : HandBrake 1.1.2 2018090500
Writing library : Lavf57.7.2
Video
ID : 1
Format : AVC
Format/Info : Advanced Video Codec
Format profile : Main@L4
Format settings : CABAC / 4 Ref Frames
Format settings, CABAC : Yes
Format settings, Reference : 4 frames
Codec ID : V_MPEG4/ISO/AVC
Duration : 1 h 29 min
Bit rate : 2 100 kb/s
Width : 1 024 pixels
Height : 428 pixels
Display aspect ratio : 2.40:1
Frame rate mode : Constant
Frame rate : 24.000 FPS
Color space : YUV
Chroma subsampling : 4:2:0
Bit depth : 8 bits
Scan type : Progressive
Bits/(Pixel*Frame) : 0.200
Stream size : 1.29 GiB (83%)
Writing library : x264 core 155 r2901 7d0ff22
Encoding settings : cabac=1 / ref=2 / deblock=1:0:0 / analyse=0x1:0x111 / me=hex / subme=6 / psy=1 / psy_rd=1.00:0.00 / mixed_ref=1 / me_range=16 / chroma_me=1 / trellis=1 / 8x8dct=0 / cqm=0 / deadzone=21,11 / fast_pskip=1 / chroma_qp_offset=-2 / threads=13 / lookahead_threads=2 / sliced_threads=0 / nr=0 / decimate=1 / interlaced=0 / bluray_compat=0 / constrained_intra=0 / bframes=3 / b_pyramid=2 / b_adapt=1 / b_bias=0 / direct=1 / weightb=1 / open_gop=0 / weightp=1 / keyint=240 / keyint_min=24 / scenecut=40 / intra_refresh=0 / rc_lookahead=30 / rc=2pass / mbtree=1 / bitrate=2100 / ratetol=1.0 / qcomp=0.60 / qpmin=0 / qpmax=69 / qpstep=4 / cplxblur=20.0 / qblur=0.5 / vbv_maxrate=20000 / vbv_bufsize=25000 / nal_hrd=none / filler=0 / ip_ratio=1.40 / aq=1:1.00
Default : Yes
Forced : No
Color range : Limited
Color primaries : BT.709
Transfer characteristics : BT.709
Matrix coefficients : BT.709
Audio
ID : 2
Format : AC-3
Format/Info : Audio Coding 3
Commercial name : Dolby Digital
Codec ID : A_AC3
Duration : 1 h 29 min
Bit rate mode : Constant
Bit rate : 384 kb/s
Channel(s) : 6 channels
Channel layout : L R C LFE Ls Rs
Sampling rate : 48.0 kHz
Frame rate : 31.250 FPS (1536 SPF)
Compression mode : Lossy
Stream size : 247 MiB (15%)
Title : Surround
Language : Russian
Service kind : Complete Main
Default : Yes
Forced : No

_________________
Показать сообщения:    

Текущее время: 06-Авг 10:41

Часовой пояс: UTC - 5



Вы не можете начинать темы
Вы не можете отвечать на сообщения
Вы не можете редактировать свои сообщения
Вы не можете удалять свои сообщения
Вы не можете голосовать в опросах
Вы не можете прикреплять файлы к сообщениям
Вы не можете скачивать файлы