Регистрация ·
Имя: Пароль:  
· Забыли пароль? · Вопросы от гостей
Shelbilar oilasi
O'zbek Tilida
BluRay 1080p x264
Qotillik Uchun Uch Kun
O'zbek Tilida
BluRay 1080p x264
Ko'd 211
O'zbek + Rus + Ing
BluRay 1080p
Интрижка
iTunes
WEB-DLRip
WarFace
Лицензия
Русский
Хоббит / Властелин колец
Коллекция
BDRip 1080p H264
SamDrivers
x32/x64
Repack
Чудесный доктор
WEB-DL 1080p
Турция
Острые козырьки
H265 1080p BluRay
Uzb+Ing
S.T.A.L.K.E.R
Анталогия
Repack
Зов джунглей
Рус
WEB-DL 1080p
Ajal Poygasi
Uzb Rus Ing
BrRip 1080p H264
Yengilmas Gvardiya
O'zbek Tilida
WEB-DL 1080p H264
Suv va Olov
O'zbek Tilida
BDRip H264
S.T.A.L.K.E.R.
Анталогия Модов
GSC Game World
GTA 5
RePack
Лицензия
Tunnel: Hayot uchun xavfli
Uzb Tilida
WEB-DL 1080p
Уважаемые гости сайта! Добро Пожаловать на наш торрент трекер,где Вы можете бесплатно скачать любой Софт,Фильмы,Музыку и многое другое! А так же постоянно ведется набор модераторов и релизеров. Зарегистрируйтесь сейчас, чтобы получить доступ ко всем функциям. После регистрации или входа на сайт вы сможете создавать темы, отвечать на сообщения и скачивать файлы.

Неаполь под пеленой / Napoli velata / Naples in Veils (Ферзан Озпетек / Ferzan Ozpetek) [2017, Драма, детектив, HDRip-AVC]

Статистика раздачи
Качаю: [ 1 ]
 
     
 
 
Автор Сообщение

NuRKHoNoFF ®

Не в сети

5408

VIP пользователь

Пол: Мужской

Стаж: 1 год 1 месяц

Сообщений: 121

Откуда: Каттакурган

Карма: 1010

[+]

Провайдер: Skyline Skyline

Наличие запрета:



Награды: Нет

[Профиль] ЛС

Создавать темы 07-Июл-2020 05:58

Цитировать

Неаполь под пеленой / Napoli velata / Last Christmas -Год выпуска: 2017
Страна: Италия
Жанр: Драма, детектив
Продолжительность: 01:52:32
Перевод: Профессиональный (многоголосый, закадровый) [HDRezka Studio]-Субтитры: Русские (Forced) английские-Режиссер: Ферзан Озпетек / Ferzan Ozpetek-В ролях: Джованна Меццоджорно, Алессандро Борги, Анна Бонаюто, Пеппе Барра, Бьяджо Форестьери, Луиза Раньери, Мария Пиа Кальцоне, Кармине Рекано, Лина Састри, Изабелла Феррари-Описание: Кейт работает в магазине рождественских товаров, злоупотребляет выпивкой и давно бросила переживать из-за собственной жизни. Но всё меняется после знакомства с милым и очаровательным Томом.
- -Качество: HDRip-AVC
Формат: MKV
Видео: MPEG-4 AVC, 720x302 (2.40:1), 23.976 fps, 1397 Kbps, 0.268 bit/pixel
Аудио: 48 kHz, AC3, 5.1, 448 Kbps-

MediaInfo

General
Unique ID : 216582871360010115161065088187281414593 (0xA2F057FF4D82C2DABF5431661BBF99C1)
Complete name : Naples.in.Veils.2017.HDRip.AVC.ExKinoRay.mkv
Format : Matroska
Format version : Version 2
File size : 1.45 GiB
Duration : 1 h 52 min
Overall bit rate : 1 845 kb/s
Movie name : Naples in Veils 2017 from ExKinoRay
Encoded date : UTC 2020-07-07 00:30:46
Writing application : mkvmerge v5.6.0 ('Kenya Kane') built on May 27 2012 16:44:04
Writing library : libebml v1.2.3 + libmatroska v1.3.0
Video
ID : 1
Format : AVC
Format/Info : Advanced Video Codec
Format profile : High@L4.1
Format settings, CABAC : Yes
Format settings, ReFrames : 11 frames
Codec ID : V_MPEG4/ISO/AVC
Duration : 1 h 52 min
Bit rate : 1 397 kb/s
Width : 720 pixels
Height : 302 pixels
Display aspect ratio : 2.40:1
Frame rate mode : Constant
Frame rate : 23.976 (24000/1001) FPS
Original frame rate : 23.976 (23976/1000) FPS
Color space : YUV
Chroma subsampling : 4:2:0
Bit depth : 8 bits
Scan type : Progressive
Bits/(Pixel*Frame) : 0.268
Stream size : 1.07 GiB (74%)
Title : Enigma
Writing library : x264 core 152 r2851 ba24899
Encoding settings : cabac=1 / ref=11 / deblock=1:-2:-2 / analyse=0x3:0x113 / me=umh / subme=10 / psy=1 / psy_rd=1.04:0.08 / mixed_ref=1 / me_range=32 / chroma_me=1 / trellis=2 / 8x8dct=1 / cqm=0 / deadzone=21,11 / fast_pskip=1 / chroma_qp_offset=-3 / threads=9 / lookahead_threads=1 / sliced_threads=0 / nr=0 / decimate=1 / interlaced=0 / bluray_compat=0 / constrained_intra=0 / bframes=9 / b_pyramid=2 / b_adapt=2 / b_bias=0 / direct=3 / weightb=1 / open_gop=0 / weightp=2 / keyint=240 / keyint_min=23 / scenecut=40 / intra_refresh=0 / rc=2pass / mbtree=0 / bitrate=1397 / ratetol=1.0 / qcomp=0.60 / qpmin=0 / qpmax=51 / qpstep=4 / cplxblur=20.0 / qblur=0.5 / ip_ratio=1.30 / pb_ratio=1.20 / aq=1:1.00
Default : Yes
Forced : No
Color range : Limited
Color primaries : BT.709
Transfer characteristics : BT.709
Matrix coefficients : BT.709
Audio
ID : 2
Format : AC-3
Format/Info : Audio Coding 3
Mode extension : CM (complete main)
Format settings, Endianness : Big
Codec ID : A_AC3
Duration : 1 h 52 min
Bit rate mode : Constant
Bit rate : 448 kb/s
Channel(s) : 6 channels
Channel positions : Front: L C R, Side: L R, LFE
Sampling rate : 48.0 kHz
Frame rate : 31.250 FPS (1536 spf)
Compression mode : Lossy
Stream size : 361 MiB (24%)
Title : MVO [HDRezka Studio]
Language : Russian
Default : Yes
Forced : No
Text #1
ID : 3
Format : UTF-8
Codec ID : S_TEXT/UTF8
Codec ID/Info : UTF-8 Plain Text
Title : Forced
Language : Russian
Default : Yes
Forced : No
Text #2
ID : 4
Format : UTF-8
Codec ID : S_TEXT/UTF8
Codec ID/Info : UTF-8 Plain Text
Title : Full
Language : Italian
Default : No
Forced : No

_________________
Показать сообщения:    

Текущее время: 15-Авг 14:51

Часовой пояс: UTC - 5



Вы не можете начинать темы
Вы не можете отвечать на сообщения
Вы не можете редактировать свои сообщения
Вы не можете удалять свои сообщения
Вы не можете голосовать в опросах
Вы не можете прикреплять файлы к сообщениям
Вы не можете скачивать файлы