Регистрация ·
Имя: Пароль:  
· Забыли пароль? · Вопросы от гостей
Qotillik Uchun Uch Kun
O'zbek Tilida
BluRay 1080p x264
Ko'd 211
O'zbek + Rus + Ing
BluRay 1080p
Интрижка
iTunes
WEB-DLRip
WarFace
Лицензия
Русский
Хоббит / Властелин колец
Коллекция
BDRip 1080p H264
SamDrivers
x32/x64
Repack
Чудесный доктор
WEB-DL 1080p
Турция
Острые козырьки
H265 1080p BluRay
Uzb+Ing
S.T.A.L.K.E.R
Анталогия
Repack
Зов джунглей
Рус
WEB-DL 1080p
Ajal Poygasi
Uzb Rus Ing
BrRip 1080p H264
Yengilmas Gvardiya
O'zbek Tilida
WEB-DL 1080p H264
Suv va Olov
O'zbek Tilida
BDRip H264
S.T.A.L.K.E.R.
Анталогия Модов
GSC Game World
GTA 5
RePack
Лицензия
Tunnel: Hayot uchun xavfli
Uzb Tilida
WEB-DL 1080p
Уважаемые гости сайта! Добро Пожаловать на наш торрент трекер,где Вы можете бесплатно скачать любой Софт,Фильмы,Музыку и многое другое! А так же постоянно ведется набор модераторов и релизеров. Зарегистрируйтесь сейчас, чтобы получить доступ ко всем функциям. После регистрации или входа на сайт вы сможете создавать темы, отвечать на сообщения и скачивать файлы.

Монахиня-воин / Warrior Nun / Сезон 1 / Серии 2 из 10 (Джет Уилкинсон, Саймон Бэрри, Матиас Хендл, Агнешка Смочиньска, Сара Уолкер) [2020, Фэнтези, боевик, драма, WEB-DLRip] LostFilm

Статистика раздачи
Скачал: [ 2 ]
 
     
 
 
Автор Сообщение

NuRKHoNoFF ®

Не в сети

5408

VIP пользователь

Пол: Мужской

Стаж: 1 год 1 месяц

Сообщений: 121

Откуда: Каттакурган

Карма: 1010

[+]

Провайдер: Skyline Skyline

Наличие запрета:



Награды: Нет

[Профиль] ЛС

Создавать темы 12-Июл-2020 04:04

Цитировать

Монахиня-воин / Warrior Nun -Название: Монахиня-воин
Оригинальное название: Warrior Nun
Год выхода: 2020
Жанр: Фэнтези, боевик, драма-Режиссер: Джет Уилкинсон, Саймон Бэрри, Матиас Хендл, Агнешка Смочиньска, Сара Уолкер-В ролях: Тоя Тернер, Альба Баптиста, Лорена Андреа, Кристина Тонтери-Янг, Текла Рютен, Оливия Делькан, Жоаким ди Алмейда, Сильвия Де Фанти, Дмитрий Аболд, Гийомар Алонсо-Описание: Обычная девушка Эйва неожиданно для себя оказывается втянута в древнюю войну таинственного ордена с силами зла. Проснувшись в морге, она обнаруживает у себя невероятные способности. Поиск ответов приводит Эйву к ордену Крестообразного Меча — секретному обществу монахинь-воинов, поклявшихся защищать мир ото зла. Теперь она должна найти баланс между новыми обязанностями спасительницы человечества и жизнью обычного подростка.- -Страна: США
Продолжительность: ~ 00:50:00 серия
Перевод: Профессиональный (многоголосый, закадровый) - [LostFilm]-Кодек: | XviD | AVI |
Качество: WEB-DLRip
Видео: ~ 1600 Кбит/с, 704x352
Аудио №1: AC3, 2 ch, 192 Кбит/с | RUS
Аудио №2: AC3, 2 ch, 192 Кбит/с | ENG
Субтитры: Отсутствуют-

Список серий

01. Psalm 46:5 / Псалом 46, стих 5
02. Proverbs 31:25 / Притчи 31, стих 25
03. Ephesians 6:11 / К Ефесянам 6, стих 11
04. Ecclesiasticus 26:9-10 / Книга Премудрости Иисуса, сына Сирахова, глава 26, стихи 9-10
05. Matthew 7:13 / Евангелие от Матфея, глава 7, стих 13
06. Isaiah 30:20-21 / Книга Пророка Исайи, глава 30, стихи 20-21
07. Ephesians 4:22-24 / К Ефесянам, глава 4, стихи 22-24
08. Proverbs 14:1 / Притчи, глава 14, стих 1
09. 2 Corinthians 10:4 / 2-е Коринфянам, глава 10, стих 4
10. Revelation 2:10 / Откровения 2:10

Релиз

Без рекламы!
Сибиряк777

MediaInfo

General
Complete name : Warrior.Nun.S01E01.WEB-DL.Rus.Eng.LostFilm.RGzsRutracker.avi
Format : AVI
Format/Info : Audio Video Interleave
File size : 728 MiB
Duration : 50 min 57 s
Overall bit rate : 1 997 kb/s
Writing application : VirtualDubMod 1.5.10.2 (build 2542/release)
Writing library : VirtualDubMod build 2542/release
Video
ID : 0
Format : MPEG-4 Visual
Format profile : Advanced Simple@L5
Format settings : BVOP1
Format settings, BVOP : 1
Format settings, QPel : No
Format settings, GMC : No warppoints
Format settings, Matrix : Default (MPEG)
Codec ID : XVID
Codec ID/Hint : XviD
Duration : 50 min 57 s
Bit rate : 1 598 kb/s
Width : 704 pixels
Height : 352 pixels
Display aspect ratio : 2.000
Frame rate : 23.976 (24000/1001) FPS
Color space : YUV
Chroma subsampling : 4:2:0
Bit depth : 8 bits
Scan type : Progressive
Compression mode : Lossy
Bits/(Pixel*Frame) : 0.269
Stream size : 583 MiB (80%)
Writing library : XviD 67
Audio #1
ID : 1
Format : AC-3
Format/Info : Audio Coding 3
Commercial name : Dolby Digital
Codec ID : 2000
Duration : 50 min 57 s
Bit rate mode : Constant
Bit rate : 192 kb/s
Channel(s) : 2 channels
Channel layout : L R
Sampling rate : 48.0 kHz
Frame rate : 31.250 FPS (1536 SPF)
Compression mode : Lossy
Stream size : 70.0 MiB (10%)
Alignment : Split across interleaves
Interleave, duration : 42 ms (1.00 video frame)
Interleave, preload duratio : 500 ms
Service kind : Complete Main
Audio #2
ID : 2
Format : AC-3
Format/Info : Audio Coding 3
Commercial name : Dolby Digital
Codec ID : 2000
Duration : 50 min 57 s
Bit rate mode : Constant
Bit rate : 192 kb/s
Channel(s) : 2 channels
Channel layout : L R
Sampling rate : 48.0 kHz
Frame rate : 31.250 FPS (1536 SPF)
Compression mode : Lossy
Stream size : 70.0 MiB (10%)
Alignment : Split across interleaves
Interleave, duration : 42 ms (1.00 video frame)
Interleave, preload duratio : 500 ms
Service kind : Complete Main

Раздача ведется путем добавления новых серий

Когда раздача ведётся путём добавления новых серий, при каждом добавлении создётся новый торрент. Чтобы начать докачку новой серии, пользователям необходимо сделать следующее:
1 остановить скачивание,
2 удалить старый торрент у себя из клиента (старые серии удалять не надо),
3 скачать новый торрент и запустить его у себя в клиенте вместо старого, при этом указать клиенту путь в старую папку, куда и должно происходить скачивание новых серий.
Ваш клиент при этом должен произвести хеширование (проверку) старой папки (если не производит сам - помогите ему сделать это), и будет докачивать только те серии, которых у вас ещё нет. Старые серии при этом не удаляются, а продолжают раздаваться!
Eсли вы уже удалили старые серии, то предотвратить повторную закачку старых серий можно, отжав галочку в соответсвующих местах при запуске нового торрента. По возможности, желательно не удалять старые серии как можно дольше, чтобы релизёр не столько продолжал раздавать старые серии, а смог сконцентрироваться на новых.

_________________

NuRKHoNoFF ®

Не в сети

5408

VIP пользователь

Пол: Мужской

Стаж: 1 год 1 месяц

Сообщений: 121

Откуда: Каттакурган

Карма: 1010

[+]

Провайдер: Skyline Skyline

Наличие запрета:



Награды: Нет

[Профиль] ЛС

Создавать темы 12-Июл-2020 04:12 (спустя 7 минут)

Цитировать

Добавил! + 1 2 серия!

_________________
Показать сообщения:    

Текущее время: 12-Авг 19:14

Часовой пояс: UTC - 5



Вы не можете начинать темы
Вы не можете отвечать на сообщения
Вы не можете редактировать свои сообщения
Вы не можете удалять свои сообщения
Вы не можете голосовать в опросах
Вы не можете прикреплять файлы к сообщениям
Вы не можете скачивать файлы