Регистрация ·
Имя: Пароль:  
· Забыли пароль? · Вопросы от гостей
Интрижка
iTunes
WEB-DLRip
WarFace
Лицензия
Русский
Хоббит / Властелин колец
Коллекция
BDRip 1080p H264
SamDrivers
x32/x64
Repack
Чудесный доктор
WEB-DL 1080p
Турция
Острые козырьки
H265 1080p BluRay
Uzb+Ing
S.T.A.L.K.E.R
Анталогия
Repack
Зов джунглей
Рус
WEB-DL 1080p
Ajal Poygasi
Uzb Rus Ing
BrRip 1080p H264
Yengilmas Gvardiya
O'zbek Tilida
WEB-DL 1080p H264
Suv va Olov
O'zbek Tilida
BDRip H264
S.T.A.L.K.E.R.
Анталогия Модов
GSC Game World
GTA 5
RePack
Лицензия
Tunnel: Hayot uchun xavfli
Uzb Tilida
WEB-DL 1080p
Уважаемые гости сайта! Добро Пожаловать на наш торрент трекер,где Вы можете бесплатно скачать любой Софт,Фильмы,Музыку и многое другое! А так же постоянно ведется набор модераторов и релизеров. Зарегистрируйтесь сейчас, чтобы получить доступ ко всем функциям. После регистрации или входа на сайт вы сможете создавать темы, отвечать на сообщения и скачивать файлы.

Хоббит / Властелин колец: Коллекция / The Hobbit / The Lord of the rings: Collection (2001-2014) BDRip 1080p | Extended Edition

Статистика раздачи
Нет
 
     
 
 
Автор Сообщение

Admin ®

Не в сети

2

VIP пользователь

Пол: Мужской

Стаж: 4 года 2 месяца

Сообщений: 136

Карма: 787

[+]

Провайдер: UzOnline UzOnline

Тарифный план: UNLIME 20 Mbit/sekund

Наличие запрета:



Награды: Нет

[Профиль] ЛС

Создавать темы 18-Июл-2020 15:30

Цитировать

Хоббит / Властелин колец: Коллекция / The Hobbit / The Lord of the rings: Collection

Хоббит: Нежданное путешествие / The Hobbit: An Unexpected Journey (2012)


Хоббит: Нежданное путешествие
The Hobbit: An Unexpected Journey
«From the smallest beginnings come the greatest legends»
Год выпуска: 2012
Страна: США, Новая Зеландия
Выпущено: Metro-Goldwyn-Mayer (MGM), New Line Cinema, WingNutMedia, Warner Bros. Pictures
Жанр: Фэнтези, приключения, семейный
Продолжительность: 03:02:30
Перевод: Дубляж, Многоголосый закадровый, авторский
Режиссер: Питер Джексон / Peter Jackson
В ролях: Мартин Фриман, Иэн МакКеллен, Ричард Армитедж, Джеймс Несбитт, Кен Стотт, Грэм МакТавиш, Дин О’Горман, Эйдан Тернер, Джед Брофи, Марк Хэдлоу
Описание: Фильм повествует о путешествии Бильбо Бэггинса, который пускается в грандиозный поход, целью которого является отвоевание утраченного королевства гномов Эребор у зловещего дракона Смауга. Совершенно неожиданно с хоббитом налаживает контакт волшебник Гэндальф Серый. Так Бильбо находит себя, присоединяясь к компании тринадцати гномов, возглавляемых легендарным воином, Торином Дубощитом. Их путешествие проляжет через Дикий Край, через предательские земли, населенные гоблинами и орками, смертоносными варгами и гигантскими пауками, народом, меняющим шкуры, и волшебниками.
И хотя их цель находится на Востоке среди пустошей Одинокой Горы, сначала им придется выбраться из туннелей гоблинов, где Бильбо встретит существо, которое изменит его жизнь навсегда... Голлума.
Здесь, один на один с Голлумом, на берегу подземного озера, непритязательный Бильбо Бэггинс обнаружит не только скрытые в глубине души хитрость и отвагу, которые удивят даже его, но и завладеет «прелестным» колечком Голлума, которое обладает нежданными и полезными свойствами... Простое золотое кольцо, c которым связана судьба всего Средиземья, нитями, о которых Бильбо не мог даже вообразить.

Кодек: H264
Качество: BDRip 1080p
Видео: MPEG-4 AVC, 1920x800, 13800 Кбит/с, 23.976 fps
Аудио 1: Русский, AC3, 6 ch, 640 Кбит/с Дубляж
Аудио 2: Русский, AC3, 6 ch, 640 Кбит/с Многоголосый закадровый, Омикрон
Аудио 3: Русский, AC3, 6 ch, 640 Кбит/с Многоголосый закадровый, Омикрон
Аудио 4: Русский, АС3, 6 ch, 640 Кбит/с Одноголосый закадровый, Ю.Сербин
Аудио 5: Русский, АС3, 6 ch, 640 Кбит/с Одноголосый, закадровый, В.Горчаков
Аудио 6: Украинский, АС3, 6 ch, 448 Кбит/с Дубляж
Аудио 7: Английский, AC3, 6 ch, 640 Кбит/с Оригинал
Аудио 8: Английский, АС3, 2 ch, 192 Кбит/с The Filmmakers' Commentary
Субтитры: Русские(2х форс, 2х полные), украинские(форс, полные), английские(форс, полные, SDH)
Главы: Есть

Инфо файл

x264 info: frame I:1878 Avg QP:13.80 size:240853
x264 info: frame P:74318 Avg QP:15.83 size:122671
x264 info: frame B:186351 Avg QP:17.28 size: 49999
Общее
Уникальный идентификатор : 216224790188602877520343969123733929703 (0xA2AB613B82AE6AA798619488A11CFEE7)
Полное имя : I:Хоббит-Властелин колец КоллекцияХоббит Нежданное путешествие 2012г. BDRip 1080p.mkv
Формат : Matroska
Версия формата : Version 2
Размер файла : 23,3 Гбайт
Продолжительность : 3 ч. 2 м.
Общий поток : 18,3 Мбит/сек
Название фильма : Хоббит: Нежданное путешествие 2012)г. от mister.hats
Дата кодирования : UTC 2019-12-21 01:35:48
Программа кодирования : mkvmerge v5.8.0 ('No Sleep / Pillow') built on Sep 2 2012 15:37:04
Библиотека кодирования : libebml v1.2.3 + libmatroska v1.3.0
Видео
Идентификатор : 1
Формат : AVC
Формат/Информация : Advanced Video Codec
Профиль формата : High@L4.1
Настройки формата : CABAC / 5 Ref Frames
Параметр CABAC формата : Да
Параметр RefFrames формата : 5 кадров
Идентификатор кодека : V_MPEG4/ISO/AVC
Продолжительность : 3 ч. 2 м.
Битрейт : 13,8 Мбит/сек
Ширина : 1920 пикселей
Высота : 800 пикселей
Соотношение сторон : 2,40:1
Режим частоты кадров : Постоянный
Частота кадров : 23,976 (24000/1001) кадра/сек
Цветовое пространство : YUV
Субдискретизация насыщенности : 4:2:0
Битовая глубина : 8 бит
Тип развёртки : Прогрессивная
Бит/(Пиксели*Кадры) : 0.375
Размер потока : 17,1 Гбайт (74%)
Библиотека кодирования : x264 core 152 r2851kMod ba24899
Настройки программы : cabac=1 / ref=5 / deblock=1:-3:-3 / analyse=0x3:0x113 / me=umh / subme=11 / psy=1 / fade_compensate=0.00 / psy_rd=1.00:0.05 / mixed_ref=1 / me_range=48 / chroma_me=1 / trellis=2 / 8x8dct=1 / cqm=0 / deadzone=21,11 / fast_pskip=0 / chroma_qp_offset=-3 / threads=12 / lookahead_threads=3 / sliced_threads=0 / nr=0 / decimate=0 / interlaced=0 / bluray_compat=0 / constrained_intra=0 / bframes=11 / b_pyramid=2 / b_adapt=2 / b_bias=0 / direct=3 / weightb=1 / open_gop=0 / weightp=2 / keyint=240 / keyint_min=23 / scenecut=40 / intra_refresh=0 / rc_lookahead=40 / rc=2pass / mbtree=0 / bitrate=13800 / ratetol=1.0 / qcomp=0.60 / qpmin=0 / qpmax=39 / qpstep=4 / cplxblur=20.0 / qblur=0.5 / vbv_maxrate=50000 / vbv_bufsize=62500 / nal_hrd=none / filler=0 / ip_ratio=1.18 / pb_ratio=1.30 / aq=2:0.80
Язык : English
Default : Да
Forced : Нет
Цветовой диапазон : Limited
Основные цвета : BT.709
Характеристики трансфера : BT.709
Коэффициенты матрицы : BT.709
Аудио #1
Идентификатор : 2
Формат : AC-3
Формат/Информация : Audio Coding 3
Параметр Endianness формата : Big
Идентификатор кодека : A_AC3
Продолжительность : 3 ч. 2 м.
Вид битрейта : Постоянный
Битрейт : 640 Кбит/сек
Каналы : 6 каналов
Расположение каналов : Front: L C R, Side: L R, LFE
Частота : 48,0 КГц
Частота кадров : 31,250 кадров/сек (1536 SPF)
Битовая глубина : 16 бит
Метод сжатия : С потерями
Размер потока : 836 Мбайт (4%)
Заголовок : Дубляж
Язык : Russian
Default : Да
Forced : Да
Аудио #2
Идентификатор : 3
Формат : AC-3
Формат/Информация : Audio Coding 3
Параметр Endianness формата : Big
Идентификатор кодека : A_AC3
Продолжительность : 3 ч. 2 м.
Вид битрейта : Постоянный
Битрейт : 640 Кбит/сек
Каналы : 6 каналов
Расположение каналов : Front: L C R, Side: L R, LFE
Частота : 48,0 КГц
Частота кадров : 31,250 кадров/сек (1536 SPF)
Битовая глубина : 16 бит
Метод сжатия : С потерями
Размер потока : 836 Мбайт (4%)
Заголовок : Многоголосый закадровый, студия «Омикрон» (озвучены разговоры Орков и Эльфов)
Язык : Russian
Default : Нет
Forced : Нет
Аудио #3
Идентификатор : 4
Формат : AC-3
Формат/Информация : Audio Coding 3
Параметр Endianness формата : Big
Идентификатор кодека : A_AC3
Продолжительность : 3 ч. 2 м.
Вид битрейта : Постоянный
Битрейт : 640 Кбит/сек
Каналы : 6 каналов
Расположение каналов : Front: L C R, Side: L R, LFE
Частота : 48,0 КГц
Частота кадров : 31,250 кадров/сек (1536 SPF)
Битовая глубина : 16 бит
Метод сжатия : С потерями
Размер потока : 836 Мбайт (4%)
Заголовок : Многоголосый закадровый, студия «Омикрон» (разговоры Орков и Эльфов оставлены в оригинале, на них форсированные субтитры)
Язык : Russian
Default : Нет
Forced : Нет
Аудио #4
Идентификатор : 5
Формат : AC-3
Формат/Информация : Audio Coding 3
Параметр Endianness формата : Big
Идентификатор кодека : A_AC3
Продолжительность : 3 ч. 2 м.
Вид битрейта : Постоянный
Битрейт : 640 Кбит/сек
Каналы : 6 каналов
Расположение каналов : Front: L C R, Side: L R, LFE
Частота : 48,0 КГц
Частота кадров : 31,250 кадров/сек (1536 SPF)
Битовая глубина : 16 бит
Метод сжатия : С потерями
Размер потока : 836 Мбайт (4%)
Заголовок : Одноголосый закадровый, Ю.Сербин
Язык : Russian
Default : Нет
Forced : Нет
Аудио #5
Идентификатор : 6
Формат : AC-3
Формат/Информация : Audio Coding 3
Параметр Endianness формата : Big
Идентификатор кодека : A_AC3
Продолжительность : 3 ч. 2 м.
Вид битрейта : Постоянный
Битрейт : 640 Кбит/сек
Каналы : 6 каналов
Расположение каналов : Front: L C R, Side: L R, LFE
Частота : 48,0 КГц
Частота кадров : 31,250 кадров/сек (1536 SPF)
Битовая глубина : 16 бит
Метод сжатия : С потерями
Размер потока : 836 Мбайт (4%)
Заголовок : Одноголосый закадровый, В.Горчаков
Язык : Russian
Default : Нет
Forced : Нет
Аудио #6
Идентификатор : 7
Формат : AC-3
Формат/Информация : Audio Coding 3
Параметр Endianness формата : Big
Идентификатор кодека : A_AC3
Продолжительность : 3 ч. 2 м.
Вид битрейта : Постоянный
Битрейт : 448 Кбит/сек
Каналы : 6 каналов
Расположение каналов : Front: L C R, Side: L R, LFE
Частота : 48,0 КГц
Частота кадров : 31,250 кадров/сек (1536 SPF)
Битовая глубина : 16 бит
Метод сжатия : С потерями
Размер потока : 585 Мбайт (2%)
Заголовок : Дубляж, Blu-ray CEE
Язык : Ukrainian
Default : Нет
Forced : Нет
Аудио #7
Идентификатор : 8
Формат : AC-3
Формат/Информация : Audio Coding 3
Параметр Endianness формата : Big
Идентификатор кодека : A_AC3
Продолжительность : 3 ч. 2 м.
Вид битрейта : Постоянный
Битрейт : 640 Кбит/сек
Каналы : 6 каналов
Расположение каналов : Front: L C R, Side: L R, LFE
Частота : 48,0 КГц
Частота кадров : 31,250 кадров/сек (1536 SPF)
Битовая глубина : 16 бит
Метод сжатия : С потерями
Размер потока : 836 Мбайт (4%)
Заголовок : Оригинал
Язык : English
Default : Нет
Forced : Нет
Аудио #8
Идентификатор : 18
Формат : AC-3
Формат/Информация : Audio Coding 3
Режим : Dolby Digital
Параметр Endianness формата : Big
Идентификатор кодека : A_AC3
Продолжительность : 3 ч. 2 м.
Вид битрейта : Постоянный
Битрейт : 192 Кбит/сек
Каналы : 2 канала
Расположение каналов : Front: L R
Частота : 48,0 КГц
Частота кадров : 31,250 кадров/сек (1536 SPF)
Битовая глубина : 16 бит
Метод сжатия : С потерями
Размер потока : 251 Мбайт (1%)
Заголовок : The Filmmakers' Commentary
Язык : English
Default : Нет
Forced : Нет
Текст #1
Идентификатор : 9
Формат : UTF-8
Идентификатор кодека : S_TEXT/UTF8
Идентификатор кодека/Информация : UTF-8 Plain Text
Заголовок : Forced v1
Язык : Russian
Default : Да
Forced : Нет
Текст #2
Идентификатор : 10
Формат : UTF-8
Идентификатор кодека : S_TEXT/UTF8
Идентификатор кодека/Информация : UTF-8 Plain Text
Заголовок : Forced v2
Язык : Russian
Default : Нет
Forced : Нет
Текст #3
Идентификатор : 11
Формат : UTF-8
Идентификатор кодека : S_TEXT/UTF8
Идентификатор кодека/Информация : UTF-8 Plain Text
Заголовок : Voronine
Язык : Russian
Default : Нет
Forced : Нет
Текст #4
Идентификатор : 12
Формат : UTF-8
Идентификатор кодека : S_TEXT/UTF8
Идентификатор кодека/Информация : UTF-8 Plain Text
Заголовок : Blu-ray
Язык : Russian
Default : Нет
Forced : Нет
Текст #5
Идентификатор : 13
Формат : UTF-8
Идентификатор кодека : S_TEXT/UTF8
Идентификатор кодека/Информация : UTF-8 Plain Text
Заголовок : Forced
Язык : Ukrainian
Default : Нет
Forced : Нет
Текст #6
Идентификатор : 14
Формат : UTF-8
Идентификатор кодека : S_TEXT/UTF8
Идентификатор кодека/Информация : UTF-8 Plain Text
Заголовок : Full
Язык : Ukrainian
Default : Нет
Forced : Нет
Текст #7
Идентификатор : 15
Формат : UTF-8
Идентификатор кодека : S_TEXT/UTF8
Идентификатор кодека/Информация : UTF-8 Plain Text
Заголовок : Forced
Язык : English
Default : Нет
Forced : Нет
Текст #8
Идентификатор : 16
Формат : UTF-8
Идентификатор кодека : S_TEXT/UTF8
Идентификатор кодека/Информация : UTF-8 Plain Text
Заголовок : Full
Язык : English
Default : Нет
Forced : Нет
Текст #9
Идентификатор : 17
Формат : UTF-8
Идентификатор кодека : S_TEXT/UTF8
Идентификатор кодека/Информация : UTF-8 Plain Text
Заголовок : SDH
Язык : English
Default : Нет
Forced : Нет
Меню
00:00:00.000 : en:en:Prologue: The Fall of Erebor
00:10:11.902 : en:en:"In a Hole in the Ground There Lived a Hobbit"
00:14:08.721 : en:en:Very Old Friends
00:17:27.250 : en:en:Mr. Baggins
00:18:44.623 : en:en:An Unexpected Party
00:23:16.603 : en:en:"Blunt the Knives"
00:27:59.469 : en:en:A Map, A Key and A Contract
00:36:04.871 : en:en:"Misty Mountains"
00:41:17.266 : en:en:"...The World Ahead"
00:46:30.829 : en:en:The Battle of Azanulbizar
00:53:04.181 : en:en:Radagast the Brown
00:58:07.650 : en:en:Trollshaws
00:59:55.300 : en:en:Roast Mutton
01:10:42.404 : en:en:A Troll-hoard
01:15:01.828 : en:en:The Hill of Sorcery
01:18:52.810 : en:en:Warg-scouts
01:24:56.925 : en:en:Rivendell
01:30:34.429 : en:en:A Short Rest
01:34:10.603 : en:en:Moon Runes
01:37:24.462 : en:en:The Defiler
01:39:03.479 : en:en:The Last Homely House
01:41:40.801 : en:en:The White Council
01:50:22.532 : en:en:"Why the Halfling?"
01:52:59.773 : en:en:Over Hill
01:59:06.345 : en:en:Under Hill
02:03:57.511 : en:en:The Great Goblin
02:09:51.573 : en:en:Riddles in the Dark
02:23:21.424 : en:en:Biter and Beater
02:25:18.876 : en:en:The Ring
02:26:31.199 : en:en:Escape from Goblin Town
02:30:52.915 : en:en:The Pity of Bilbo
02:33:00.546 : en:en:"Home is Behind..."
02:35:52.593 : en:en:Out of the Frying Pan...
02:46:51.209 : en:en:A Good Omen
02:52:21.370 : en:en:Credits

Хоббит: Пустошь Смауга / The Hobbit: The Desolation of Smaug (2013)


Хоббит: Пустошь Смауга
The Hobbit: The Desolation of Smaug
«Beyond darkness... beyond desolation... lies the greatest danger of all»

Год выпуска: 2013
Страна: США, Новая Зеландия
Выпущено: Metro-Goldwyn-Mayer (MGM), New Line Cinema, WingNutBros. Pictures
Жанр: Фэнтези, приключения, семейный
Продолжительность: 03:06:35
Перевод: Дубляж, многоголосый закадровый, авторский
Режиссер: Питер Джексон / Peter Jackson
В ролях: Мартин Фриман, Ричард Армитедж, Иэн МакКеллен, Эванджелин Лилли, Орландо Блум, Люк Эванс, Бенедикт Камбербэтч, Ли Пейс, Кен Стотт, Эйдан Тернер
Описание: Продолжение путешествия хоббита Бильбо Бэггинса, волшебника Гэндальфа и 13 отважных гномов. Их компания обязана завершить своё путешествие к Одинокой горе. Там они должны встретиться с величайшей опасностью из всех — созданием куда более ужасающим, чем все их прошлые противники, которое проверит на прочность не только их мужество, но крепость их дружбы и правильность выбранного пути, — драконом Смаугом.

Кодек: H264
Качество: BDRip 1080p
Видео: MPEG-4 AVC, 1920x800, 13500 Кбит/с, 23.976 fps
Аудио 1: Русский, AC3, 6 ch, 640 Кбит/с Дубляж
Аудио 2: Русский, AC3, 6 ch, 640 Кбит/с Многоголосый закадровый, Омикрон
Аудио 3: Русский, AC3, 6 ch, 640 Кбит/с Многоголосый закадровый, Омикрон
Аудио 4: Русский, АС3, 6 ch, 640 Кбит/с Одноголосый закадровый, Ю.Сербин
Аудио 5: Русский, АС3, 6 ch, 640 Кбит/с Одноголосый, закадровый, В.Горчаков
Аудио 6: Украинский, АС3, 6 ch, 448 Кбит/с Дубляж
Аудио 7: Английский, AC3, 6 ch, 640 Кбит/с Оригинал
Аудио 8: Английский, АС3, 2 ch, 192 Кбит/с The Filmmakers' Commentary
Субтитры: Русские(форс, 2х полные), украинские(форс, полные), английские(полные, SDH, SDH-Colored)
Главы: Есть

Инфо файл

x264 info: frame I:2035 Avg QP:14.27 size:256561
x264 info: frame P:71499 Avg QP:16.41 size:118986
x264 info: frame B:194875 Avg QP:17.64 size: 50591
Общее
Уникальный идентификатор : 242138935649362852954222565109713424135 (0xB62A433F73221D5CA2812B5209054F07)
Полное имя : I:Хоббит-Властелин колец КоллекцияХоббит Пустошь Смауга 2013г. BDRip 1080p.mkv
Формат : Matroska
Версия формата : Version 2
Размер файла : 23,4 Гбайт
Продолжительность : 3 ч. 6 м.
Общий поток : 18,0 Мбит/сек
Название фильма : Хоббит: Пустошь Смауга 2013г. от mister.hats
Дата кодирования : UTC 2019-12-22 13:25:43
Программа кодирования : mkvmerge v5.8.0 ('No Sleep / Pillow') built on Sep 2 2012 15:37:04
Библиотека кодирования : libebml v1.2.3 + libmatroska v1.3.0
Видео
Идентификатор : 1
Формат : AVC
Формат/Информация : Advanced Video Codec
Профиль формата : High@L4.1
Настройки формата : CABAC / 5 Ref Frames
Параметр CABAC формата : Да
Параметр RefFrames формата : 5 кадров
Идентификатор кодека : V_MPEG4/ISO/AVC
Продолжительность : 3 ч. 6 м.
Битрейт : 13,5 Мбит/сек
Ширина : 1920 пикселей
Высота : 800 пикселей
Соотношение сторон : 2,40:1
Режим частоты кадров : Постоянный
Частота кадров : 23,976 (24000/1001) кадра/сек
Цветовое пространство : YUV
Субдискретизация насыщенности : 4:2:0
Битовая глубина : 8 бит
Тип развёртки : Прогрессивная
Бит/(Пиксели*Кадры) : 0.367
Размер потока : 17,1 Гбайт (73%)
Библиотека кодирования : x264 core 152 r2851kMod ba24899
Настройки программы : cabac=1 / ref=5 / deblock=1:-3:-3 / analyse=0x3:0x113 / me=umh / subme=11 / psy=1 / fade_compensate=0.00 / psy_rd=1.00:0.00 / mixed_ref=1 / me_range=48 / chroma_me=1 / trellis=2 / 8x8dct=1 / cqm=0 / deadzone=21,11 / fast_pskip=0 / chroma_qp_offset=-2 / threads=12 / lookahead_threads=3 / sliced_threads=0 / nr=0 / decimate=0 / interlaced=0 / bluray_compat=0 / constrained_intra=0 / bframes=11 / b_pyramid=2 / b_adapt=2 / b_bias=0 / direct=3 / weightb=1 / open_gop=0 / weightp=2 / keyint=240 / keyint_min=23 / scenecut=40 / intra_refresh=0 / rc_lookahead=40 / rc=2pass / mbtree=0 / bitrate=13500 / ratetol=1.0 / qcomp=0.60 / qpmin=0 / qpmax=39 / qpstep=4 / cplxblur=20.0 / qblur=0.5 / vbv_maxrate=50000 / vbv_bufsize=62500 / nal_hrd=none / filler=0 / ip_ratio=1.20 / pb_ratio=1.25 / aq=3:0.70
Язык : English
Default : Да
Forced : Нет
Цветовой диапазон : Limited
Основные цвета : BT.709
Характеристики трансфера : BT.709
Коэффициенты матрицы : BT.709
Аудио #1
Идентификатор : 2
Формат : AC-3
Формат/Информация : Audio Coding 3
Параметр Endianness формата : Big
Идентификатор кодека : A_AC3
Продолжительность : 3 ч. 6 м.
Вид битрейта : Постоянный
Битрейт : 640 Кбит/сек
Каналы : 6 каналов
Расположение каналов : Front: L C R, Side: L R, LFE
Частота : 48,0 КГц
Частота кадров : 31,250 кадров/сек (1536 SPF)
Битовая глубина : 16 бит
Метод сжатия : С потерями
Размер потока : 854 Мбайт (4%)
Заголовок : Дубляж
Язык : Russian
Default : Да
Forced : Нет
Аудио #2
Идентификатор : 3
Формат : AC-3
Формат/Информация : Audio Coding 3
Параметр Endianness формата : Big
Идентификатор кодека : A_AC3
Продолжительность : 3 ч. 6 м.
Вид битрейта : Постоянный
Битрейт : 640 Кбит/сек
Каналы : 6 каналов
Расположение каналов : Front: L C R, Side: L R, LFE
Частота : 48,0 КГц
Частота кадров : 31,250 кадров/сек (1536 SPF)
Битовая глубина : 16 бит
Метод сжатия : С потерями
Размер потока : 854 Мбайт (4%)
Заголовок : Многоголосый закадровый, студия «Омикрон» (озвучены разговоры Орков и Эльфов)
Язык : Russian
Default : Нет
Forced : Нет
Аудио #3
Идентификатор : 4
Формат : AC-3
Формат/Информация : Audio Coding 3
Параметр Endianness формата : Big
Идентификатор кодека : A_AC3
Продолжительность : 3 ч. 6 м.
Вид битрейта : Постоянный
Битрейт : 640 Кбит/сек
Каналы : 6 каналов
Расположение каналов : Front: L C R, Side: L R, LFE
Частота : 48,0 КГц
Частота кадров : 31,250 кадров/сек (1536 SPF)
Битовая глубина : 16 бит
Метод сжатия : С потерями
Размер потока : 854 Мбайт (4%)
Заголовок : Многоголосый закадровый, студия «Омикрон» (разговоры Орков и Эльфов оставлены в оригинале, на них форсированные субтитры)
Язык : Russian
Default : Нет
Forced : Нет
Аудио #4
Идентификатор : 5
Формат : AC-3
Формат/Информация : Audio Coding 3
Параметр Endianness формата : Big
Идентификатор кодека : A_AC3
Продолжительность : 3 ч. 6 м.
Вид битрейта : Постоянный
Битрейт : 640 Кбит/сек
Каналы : 6 каналов
Расположение каналов : Front: L C R, Side: L R, LFE
Частота : 48,0 КГц
Частота кадров : 31,250 кадров/сек (1536 SPF)
Битовая глубина : 16 бит
Метод сжатия : С потерями
Размер потока : 854 Мбайт (4%)
Заголовок : Одноголосый закадровый, Ю.Сербин
Язык : Russian
Default : Нет
Forced : Нет
Аудио #5
Идентификатор : 6
Формат : AC-3
Формат/Информация : Audio Coding 3
Параметр Endianness формата : Big
Идентификатор кодека : A_AC3
Продолжительность : 3 ч. 6 м.
Вид битрейта : Постоянный
Битрейт : 640 Кбит/сек
Каналы : 6 каналов
Расположение каналов : Front: L C R, Side: L R, LFE
Частота : 48,0 КГц
Частота кадров : 31,250 кадров/сек (1536 SPF)
Битовая глубина : 16 бит
Метод сжатия : С потерями
Размер потока : 854 Мбайт (4%)
Заголовок : Одноголосый, закадровый, В.Горчаков
Язык : Russian
Default : Нет
Forced : Нет
Аудио #6
Идентификатор : 7
Формат : AC-3
Формат/Информация : Audio Coding 3
Параметр Endianness формата : Big
Идентификатор кодека : A_AC3
Продолжительность : 3 ч. 6 м.
Вид битрейта : Постоянный
Битрейт : 448 Кбит/сек
Каналы : 6 каналов
Расположение каналов : Front: L C R, Side: L R, LFE
Частота : 48,0 КГц
Частота кадров : 31,250 кадров/сек (1536 SPF)
Битовая глубина : 16 бит
Метод сжатия : С потерями
Размер потока : 598 Мбайт (2%)
Заголовок : Дубляж
Язык : Ukrainian
Default : Нет
Forced : Нет
Аудио #7
Идентификатор : 8
Формат : AC-3
Формат/Информация : Audio Coding 3
Параметр Endianness формата : Big
Идентификатор кодека : A_AC3
Продолжительность : 3 ч. 6 м.
Вид битрейта : Постоянный
Битрейт : 640 Кбит/сек
Каналы : 6 каналов
Расположение каналов : Front: L C R, Side: L R, LFE
Частота : 48,0 КГц
Частота кадров : 31,250 кадров/сек (1536 SPF)
Битовая глубина : 16 бит
Метод сжатия : С потерями
Размер потока : 854 Мбайт (4%)
Заголовок : Оригинал
Язык : English
Default : Нет
Forced : Нет
Аудио #8
Идентификатор : 9
Формат : AC-3
Формат/Информация : Audio Coding 3
Режим : Dolby Digital
Параметр Endianness формата : Big
Идентификатор кодека : A_AC3
Продолжительность : 3 ч. 6 м.
Вид битрейта : Постоянный
Битрейт : 192 Кбит/сек
Каналы : 2 канала
Расположение каналов : Front: L R
Частота : 48,0 КГц
Частота кадров : 31,250 кадров/сек (1536 SPF)
Битовая глубина : 16 бит
Метод сжатия : С потерями
Размер потока : 256 Мбайт (1%)
Заголовок : The Filmmakers' Commentary
Язык : English
Default : Нет
Forced : Нет
Текст #1
Идентификатор : 10
Формат : UTF-8
Идентификатор кодека : S_TEXT/UTF8
Идентификатор кодека/Информация : UTF-8 Plain Text
Заголовок : Forced
Язык : Russian
Default : Да
Forced : Нет
Текст #2
Идентификатор : 11
Формат : UTF-8
Идентификатор кодека : S_TEXT/UTF8
Идентификатор кодека/Информация : UTF-8 Plain Text
Заголовок : Blu-ray
Язык : Russian
Default : Нет
Forced : Нет
Текст #3
Идентификатор : 12
Формат : UTF-8
Идентификатор кодека : S_TEXT/UTF8
Идентификатор кодека/Информация : UTF-8 Plain Text
Заголовок : Voronine
Язык : Russian
Default : Нет
Forced : Нет
Текст #4
Идентификатор : 13
Формат : UTF-8
Идентификатор кодека : S_TEXT/UTF8
Идентификатор кодека/Информация : UTF-8 Plain Text
Заголовок : Forced
Язык : Ukrainian
Default : Нет
Forced : Нет
Текст #5
Идентификатор : 14
Формат : UTF-8
Идентификатор кодека : S_TEXT/UTF8
Идентификатор кодека/Информация : UTF-8 Plain Text
Заголовок : Full
Язык : Ukrainian
Default : Нет
Forced : Нет
Текст #6
Идентификатор : 15
Формат : UTF-8
Идентификатор кодека : S_TEXT/UTF8
Идентификатор кодека/Информация : UTF-8 Plain Text
Заголовок : Full
Язык : English
Default : Нет
Forced : Нет
Текст #7
Идентификатор : 16
Формат : UTF-8
Идентификатор кодека : S_TEXT/UTF8
Идентификатор кодека/Информация : UTF-8 Plain Text
Заголовок : SDH
Язык : English
Default : Нет
Forced : Нет
Текст #8
Идентификатор : 17
Формат : UTF-8
Идентификатор кодека : S_TEXT/UTF8
Идентификатор кодека/Информация : UTF-8 Plain Text
Заголовок : SDH-Colored
Язык : English
Default : Нет
Forced : Нет
Меню
00:00:00.000 : :The Quest for Erebor / В поисках Эребора
00:07:33.411 : :Wilderland / Дикие земли
00:12:00.302 : :The Master Summons / Зов Мастера
00:12:59.445 : :A Commander of Legions / Командир легионов
00:15:55.371 : :Queer Lodgings / Небывалое пристанище
00:20:56.922 : :Last of the Skin-changers / Последний из оборотней
00:23:15.435 : :Where the Shadows Lie / Там, где тени
00:25:52.676 : :The Elven-gate / Эльфийские врата
00:29:59.255 : :Mirkwood / Лихолесье
00:38:14.041 : :Flies and Spiders / Мухи и пауки
00:46:43.842 : :The Woodland Realm / Лесное царство
00:49:46.316 : :The Elvenking / Король эльфов
00:53:19.529 : :King and Captain / Король и капитан
00:55:10.223 : :Feast of Starlight / Праздник лунного света
00:58:07.859 : :Barrels Out of Bond / В бочках из тюрьмы
01:08:42.326 : :The High Fells / Падшие твари
01:12:22.338 : :Bard the Bowman / Бард Лучник
01:15:45.707 : :The Nature of Evil / Природа зла
01:19:10.162 : :Smuggled Cargo / Контрабандный груз
01:22:46.836 : :Lake-town / Озёрный город
01:25:09.687 : :The Master of Lake-town / Хозяин Озёрного города
01:28:07.740 : :The World of Men / Мир людей
01:31:15.553 : :The Home of Bard / Дом Барда
01:36:02.756 : :«It Is Our Fight» / «Это наша борьба»
01:37:35.891 : :The Prophecy / Пророчество
01:40:35.404 : :A Warm Welcome / Радушный приём
01:45:16.518 : :The Parting of the Company / Разделение компании
01:48:44.476 : :The Lonely Mountain / Одинокая гора
01:50:31.750 : :A Spell of Concealment / Завеса тайны
01:52:36.541 : :The Hidden Door / Потайная дверь
01:53:08.448 : :Son of Thror / Сын Трора
01:59:16.357 : :On the Doorstep / На пороге
02:07:11.832 : :Kingsfoil / Королевский лист
02:07:39.109 : :The Courage of Hobbits / Отвага хоббитов
02:09:22.671 : :The Enemy Revealed / Враг раскрыт
02:12:48.585 : :Inside Information / Внутренняя информация
02:22:00.845 : :The Black Arrow / Чёрная стрела
02:22:43.429 : :In the Dragon's Lair / В логове дракона
02:23:17.922 : :Under Arrest / Под арестом
02:24:56.396 : :Bilbo the Burgler / Грабитель Бильбо
02:26:45.087 : :Smaug the Magnificent / Смауг Великолепный
02:29:18.824 : :Orc Attach / Атака орков
02:33:12.975 : :Confrontations / Сравнения
02:34:57.621 : :Elvish Medicine / Лекарства эльфов
02:36:13.155 : :Hunter and Hunted / Охотник и жертва
02:37:45.956 : :«She Walks In Starlight» / «Она двигается в свете звёзд»
02:39:08.830 : :A Desperate Plan / Отчаянный план
02:41:39.940 : :Duel in Lake-town / Дуэль в Озёрном городе
02:44:06.002 : :The Forges Relit / Кузницы вновь зажжены
02:51:16.683 : :Smaug the Golden / Золотой Смауг
02:56:05.555 : :Credits / Титры

Хоббит: Битва пяти воинств / The Hobbit: The Battle of the Five Armies (2014)


Хоббит: Битва пяти воинств
The Hobbit: The Battle of the Five Armies
"The last journey to middle-earth»

Год выпуска: 2014
Страна: США, Новая Зеландия
Выпущено: Metro-Goldwyn-Mayer (MGM), New Line Cinema, WingNut Films, 3Foot7.
Жанр: Фэнтези, приключения, семейный
Продолжительность: 02:44:03
Перевод: Дубляж, Многоголосый закадровый, авторский
Режиссер: Питер Джексон / Peter Jackson
В ролях: Мартин Фриман, Иэн МакКеллен, Ричард Армитедж, Люк Эванс, Эванджелин Лилли, Ли Пейс, Орландо Блум, Бенедикт Камбербэтч, Кен Стотт, Эйдан Тёрнер
Описание: Когда отряд из тринадцати гномов нанимал хоббита Бильбо Бэгинса в качестве взломщика и четырнадцатого, «счастливого», участника похода к Одинокой горе, Бильбо полагал, что его приключения закончатся, когда он выполнит свою задачу - найдет сокровище, которое так необходимо предводителю гномов Торину. Путешествие в Эребор, захваченное драконом Смаугом королевство гномов, оказалось еще более опасным, чем предполагали гномы и даже Гэндальф - мудрый волшебник, протянувший Торину и его отряду руку помощи.В погоню за гномами устремилась армия орков, ведомых пробудившимся в руинах древним злом, а эльфы и люди, с которыми Бильбо и его товарищам пришлось иметь дело во время путешествия и которые пострадали от последствий желания гномов вернуть свой дом, предъявили права на щедрое вознаграждение - часть сокровищ Одинокой горы. Скоро неподалеку от Одинокой горы встретятся пять армий, и лишь кровопролитная битва определит результаты смелого гномьего похода...

Кодек: H264
Качество: BDRip 1080p
Видео: MPEG-4 AVC, 1920x800, 13000 Кбит/с, 23.976 fps
Аудио 1: Русский, AC3, 6 ch, 448 Кбит/с Дубляж
Аудио 2: Русский, AC3, 6 ch, 640 Кбит/с Многоголосый закадровый, Омикрон
Аудио 3: Русский, AC3, 6 ch, 640 Кбит/с Многоголосый закадровый, Омикрон
Аудио 4: Русский, АС3, 6 ch, 640 Кбит/с Одноголосый закадровый, Ю.Сербин
Аудио 5: Русский, АС3, 6 ch, 640 Кбит/с Одноголосый, закадровый, В.Горчаков
Аудио 6: Украинский, АС3, 6 ch, 448 Кбит/с Дубляж
Аудио 7: Английский, AC3, 6 ch, 640 Кбит/с Оригинал
Аудио 8: Английский, АС3, 2 ch, 192 Кбит/с Commentary with filmmaker Peter Jackson & co-writer Philippa Boyens
Субтитры: Русские(форс, 2х полные), украинские(форс, полные), английские(полные, SDH)
Главы: Есть

Инфо файл

x264 info: frame I:1715 Avg QP:15.44 size:271374
x264 info: frame P:69924 Avg QP:17.97 size:112749
x264 info: frame B:164346 Avg QP:19.04 size: 46516
Общее
Уникальный идентификатор : 195543957857587987056585540417500162715 (0x931C6579B2530F718DDE0BF24E7B2A9B)
Полное имя : I:Хоббит-Властелин колец КоллекцияХоббит Битва пяти воинств 2014г. BDRip 1080p.mkv
Формат : Matroska
Версия формата : Version 2
Размер файла : 19,8 Гбайт
Продолжительность : 2 ч. 44 м.
Общий поток : 17,3 Мбит/сек
Название фильма : Хоббит: Битва пяти воинств 2014г. от mister.hats
Дата кодирования : UTC 2019-12-24 10:21:47
Программа кодирования : mkvmerge v5.8.0 ('No Sleep / Pillow') built on Sep 2 2012 15:37:04
Библиотека кодирования : libebml v1.2.3 + libmatroska v1.3.0
Видео
Идентификатор : 1
Формат : AVC
Формат/Информация : Advanced Video Codec
Профиль формата : High@L4.1
Настройки формата : CABAC / 5 Ref Frames
Параметр CABAC формата : Да
Параметр RefFrames формата : 5 кадров
Идентификатор кодека : V_MPEG4/ISO/AVC
Продолжительность : 2 ч. 44 м.
Битрейт : 13,0 Мбит/сек
Ширина : 1920 пикселей
Высота : 800 пикселей
Соотношение сторон : 2,40:1
Режим частоты кадров : Постоянный
Частота кадров : 23,976 (24000/1001) кадра/сек
Цветовое пространство : YUV
Субдискретизация насыщенности : 4:2:0
Битовая глубина : 8 бит
Тип развёртки : Прогрессивная
Бит/(Пиксели*Кадры) : 0.353
Размер потока : 14,5 Гбайт (73%)
Библиотека кодирования : x264 core 152 r2851kMod ba24899
Настройки программы : cabac=1 / ref=5 / deblock=1:-3:-3 / analyse=0x3:0x113 / me=umh / subme=11 / psy=1 / fade_compensate=0.00 / psy_rd=1.00:0.00 / mixed_ref=1 / me_range=48 / chroma_me=1 / trellis=2 / 8x8dct=1 / cqm=0 / deadzone=21,11 / fast_pskip=0 / chroma_qp_offset=-2 / threads=12 / lookahead_threads=3 / sliced_threads=0 / nr=0 / decimate=0 / interlaced=0 / bluray_compat=0 / constrained_intra=0 / bframes=11 / b_pyramid=2 / b_adapt=2 / b_bias=0 / direct=3 / weightb=1 / open_gop=0 / weightp=2 / keyint=240 / keyint_min=23 / scenecut=40 / intra_refresh=0 / rc_lookahead=40 / rc=2pass / mbtree=0 / bitrate=13000 / ratetol=1.0 / qcomp=0.60 / qpmin=0 / qpmax=39 / qpstep=4 / cplxblur=20.0 / qblur=0.5 / vbv_maxrate=50000 / vbv_bufsize=62500 / nal_hrd=none / filler=0 / ip_ratio=1.20 / pb_ratio=1.25 / aq=3:0.70
Язык : English
Default : Да
Forced : Нет
Цветовой диапазон : Limited
Основные цвета : BT.709
Характеристики трансфера : BT.709
Коэффициенты матрицы : BT.709
Аудио #1
Идентификатор : 2
Формат : AC-3
Формат/Информация : Audio Coding 3
Параметр Endianness формата : Big
Идентификатор кодека : A_AC3
Продолжительность : 2 ч. 44 м.
Вид битрейта : Постоянный
Битрейт : 448 Кбит/сек
Каналы : 6 каналов
Расположение каналов : Front: L C R, Side: L R, LFE
Частота : 48,0 КГц
Частота кадров : 31,250 кадров/сек (1536 SPF)
Битовая глубина : 16 бит
Метод сжатия : С потерями
Размер потока : 526 Мбайт (3%)
Заголовок : Дубляж
Язык : Russian
Default : Да
Forced : Нет
Аудио #2
Идентификатор : 3
Формат : AC-3
Формат/Информация : Audio Coding 3
Параметр Endianness формата : Big
Идентификатор кодека : A_AC3
Продолжительность : 2 ч. 44 м.
Вид битрейта : Постоянный
Битрейт : 640 Кбит/сек
Каналы : 6 каналов
Расположение каналов : Front: L C R, Side: L R, LFE
Частота : 48,0 КГц
Частота кадров : 31,250 кадров/сек (1536 SPF)
Битовая глубина : 16 бит
Метод сжатия : С потерями
Размер потока : 751 Мбайт (4%)
Заголовок : Многоголосый закадровый, студия «Омикрон» (озвучены разговоры Орков и Эльфов)
Язык : Russian
Default : Нет
Forced : Нет
Аудио #3
Идентификатор : 4
Формат : AC-3
Формат/Информация : Audio Coding 3
Параметр Endianness формата : Big
Идентификатор кодека : A_AC3
Продолжительность : 2 ч. 44 м.
Вид битрейта : Постоянный
Битрейт : 640 Кбит/сек
Каналы : 6 каналов
Расположение каналов : Front: L C R, Side: L R, LFE
Частота : 48,0 КГц
Частота кадров : 31,250 кадров/сек (1536 SPF)
Битовая глубина : 16 бит
Метод сжатия : С потерями
Размер потока : 751 Мбайт (4%)
Заголовок : Многоголосый закадровый, студия «Омикрон» (разговоры Орков и Эльфов оставлены в оригинале, на них форсированные субтитры)
Язык : Russian
Default : Нет
Forced : Нет
Аудио #4
Идентификатор : 5
Формат : AC-3
Формат/Информация : Audio Coding 3
Параметр Endianness формата : Big
Идентификатор кодека : A_AC3
Продолжительность : 2 ч. 44 м.
Вид битрейта : Постоянный
Битрейт : 640 Кбит/сек
Каналы : 6 каналов
Расположение каналов : Front: L C R, Side: L R, LFE
Частота : 48,0 КГц
Частота кадров : 31,250 кадров/сек (1536 SPF)
Битовая глубина : 16 бит
Метод сжатия : С потерями
Размер потока : 751 Мбайт (4%)
Заголовок : Одноголосый закадровый, Ю.Сербин
Язык : Russian
Default : Нет
Forced : Нет
Аудио #5
Идентификатор : 6
Формат : AC-3
Формат/Информация : Audio Coding 3
Параметр Endianness формата : Big
Идентификатор кодека : A_AC3
Продолжительность : 2 ч. 44 м.
Вид битрейта : Постоянный
Битрейт : 640 Кбит/сек
Каналы : 6 каналов
Расположение каналов : Front: L C R, Side: L R, LFE
Частота : 48,0 КГц
Частота кадров : 31,250 кадров/сек (1536 SPF)
Битовая глубина : 16 бит
Метод сжатия : С потерями
Размер потока : 751 Мбайт (4%)
Заголовок : Одноголосый закадровый, В.Горчаков
Язык : Russian
Default : Нет
Forced : Нет
Аудио #6
Идентификатор : 7
Формат : AC-3
Формат/Информация : Audio Coding 3
Параметр Endianness формата : Big
Идентификатор кодека : A_AC3
Продолжительность : 2 ч. 44 м.
Вид битрейта : Постоянный
Битрейт : 448 Кбит/сек
Каналы : 6 каналов
Расположение каналов : Front: L C R, Side: L R, LFE
Частота : 48,0 КГц
Частота кадров : 31,250 кадров/сек (1536 SPF)
Битовая глубина : 16 бит
Метод сжатия : С потерями
Размер потока : 526 Мбайт (3%)
Заголовок : Дубляж
Язык : Ukrainian
Default : Нет
Forced : Нет
Аудио #7
Идентификатор : 8
Формат : AC-3
Формат/Информация : Audio Coding 3
Параметр Endianness формата : Big
Идентификатор кодека : A_AC3
Продолжительность : 2 ч. 44 м.
Вид битрейта : Постоянный
Битрейт : 640 Кбит/сек
Каналы : 6 каналов
Расположение каналов : Front: L C R, Side: L R, LFE
Частота : 48,0 КГц
Частота кадров : 31,250 кадров/сек (1536 SPF)
Битовая глубина : 16 бит
Метод сжатия : С потерями
Размер потока : 751 Мбайт (4%)
Заголовок : Оригинал
Язык : English
Default : Нет
Forced : Нет
Аудио #8
Идентификатор : 9
Формат : AC-3
Формат/Информация : Audio Coding 3
Режим : Dolby Digital
Параметр Endianness формата : Big
Идентификатор кодека : A_AC3
Продолжительность : 2 ч. 44 м.
Вид битрейта : Постоянный
Битрейт : 192 Кбит/сек
Каналы : 2 канала
Расположение каналов : Front: L R
Частота : 48,0 КГц
Частота кадров : 31,250 кадров/сек (1536 SPF)
Битовая глубина : 16 бит
Метод сжатия : С потерями
Размер потока : 225 Мбайт (1%)
Заголовок : Commentary with filmmaker Peter Jackson & co-writer Philippa Boyens
Язык : English
Default : Нет
Forced : Нет
Текст #1
Идентификатор : 10
Формат : UTF-8
Идентификатор кодека : S_TEXT/UTF8
Идентификатор кодека/Информация : UTF-8 Plain Text
Заголовок : Forced
Язык : Russian
Default : Да
Forced : Нет
Текст #2
Идентификатор : 11
Формат : UTF-8
Идентификатор кодека : S_TEXT/UTF8
Идентификатор кодека/Информация : UTF-8 Plain Text
Заголовок : iTunes
Язык : Russian
Default : Нет
Forced : Нет
Текст #3
Идентификатор : 12
Формат : UTF-8
Идентификатор кодека : S_TEXT/UTF8
Идентификатор кодека/Информация : UTF-8 Plain Text
Заголовок : Voronine
Язык : Russian
Default : Нет
Forced : Нет
Текст #4
Идентификатор : 13
Формат : UTF-8
Идентификатор кодека : S_TEXT/UTF8
Идентификатор кодека/Информация : UTF-8 Plain Text
Заголовок : Forced
Язык : Ukrainian
Default : Нет
Forced : Нет
Текст #5
Идентификатор : 14
Формат : UTF-8
Идентификатор кодека : S_TEXT/UTF8
Идентификатор кодека/Информация : UTF-8 Plain Text
Заголовок : iTunes
Язык : Ukrainian
Default : Нет
Forced : Нет
Текст #6
Идентификатор : 15
Формат : UTF-8
Идентификатор кодека : S_TEXT/UTF8
Идентификатор кодека/Информация : UTF-8 Plain Text
Заголовок : Full
Язык : English
Default : Нет
Forced : Нет
Текст #7
Идентификатор : 16
Формат : UTF-8
Идентификатор кодека : S_TEXT/UTF8
Идентификатор кодека/Информация : UTF-8 Plain Text
Заголовок : SDH
Язык : English
Default : Нет
Forced : Нет
Меню
00:00:00.000 : en:Fire and Water
00:05:12.061 : en:Bard the Dragon-Slayer
00:12:47.016 : en:Dungeons of the Dark Lord
00:13:18.964 : en:Shores of the Long Lake
00:18:57.219 : en:Not at Home
00:23:42.003 : en:Others will Now Look to the Mountain
00:24:56.119 : en:Legions of the Defiler
00:26:04.354 : en:The Mark of Gundabad
00:27:32.984 : en:Attack on Dol Guldur
00:35:45.351 : en:Summon Our Friends
00:36:41.073 : en:The King's Jewel
00:40:41.898 : en:The Ruins of Dale
00:42:01.144 : en:Erebor Fortified
00:43:11.756 : en:The Elvenking's Aid
00:46:16.148 : en:The Gathering of the Clouds
00:51:27.668 : en:A Token of Friendship
00:54:57.961 : en:The Shadow of Gundabad
00:56:14.830 : en:The Last Move in a Master Plan
00:58:31.299 : en:Bolg of the North
01:00:26.957 : en:The Night Watch
01:02:43.593 : en:A Thief in the Night
01:06:10.175 : en:An Honest Burglar
01:12:23.297 : en:Dain Ironfoot
01:17:22.555 : en:The Clouds Burst
01:20:36.331 : en:The Battle at Dale
01:24:57.217 : en:The Darkest Hour
01:28:41.775 : en:Dragon-Sickness
01:30:52.280 : en:The Return of Thorin Oakenshild
01:33:02.159 : en:Sons of Durin
01:35:12.832 : en:"To the King!"
01:38:32.489 : en:A Call to Arms
01:39:42.893 : en:Thorin's Plan
01:41:00.596 : en:The War Chariot
01:45:03.505 : en:Courage and Cowardice
01:47:13.635 : en:The Fifth Army
01:49:05.288 : en:Scouting Ravenhill
01:50:03.013 : en:Blood of the Eldar
01:52:59.606 : en:An Unforeseen Remedy
01:53:51.282 : en:The Fallen
01:57:15.236 : en:The Battle at Ravenhill
02:05:38.572 : en:To the Death
02:12:07.044 : en:Parting in Friendship
02:20:07.440 : en:King under the Mountain
02:22:27.205 : en:The Return Journey
02:26:11.596 : en:The Last Stage
02:30:54.462 : en:Credits

Властелин колец: Братство кольца / The Lord of the Rings: The Fellowship of the Ring (2001)


Властелин колец: Братство кольца
The Lord of the Rings: The Fellowship of the Ring
«Power can be held in the smallest of things...»

Год выпуска: 2001
Страна: США, Новая Зеландия
Жанр: Фэнтези, драма, приключения
Продолжительность: 03:48:19
Перевод: Дубляж, многоголосый закадровый, авторский
Режиссер: Питер Джексон / Peter Jackson
В ролях: Элайджа Вуд, Шон Эстин, Вигго Мортенсен, Иэн МакКеллен, Доминик Монахэн, Билли Бойд, Шон Бин, Орландо Блум, Джон Рис-Дэвис, Кристофер Ли
Описание: Сказания о Средиземье — это хроника Великой войны за Кольцо, войны, длившейся не одну тысячу лет. Тот, кто владел Кольцом, получал власть над всеми живыми тварями, но был обязан служить злу. Тихая деревня, где живут хоббиты. Волшебник Гэндальф, придя на 111-й день рождения к своему старому другу Бильбо Бэггинсу, начинает вести разговор о кольце, которое Бильбо нашел много лет назад. Это кольцо принадлежало когда-то темному властителю Средиземья Саурону, и оно дает большую власть своему обладателю. Теперь Саурон хочет вернуть себе власть над Средиземьем. Бильбо отдает найденное кольцо своему племяннику Фродо, который пытается научиться справляться с тем страшным могуществом, которое дает ему кольцо...


Кодек: H264
Качество: BDRip 1080p
Видео: MPEG-4 AVC, 1920x800, 13000 Кбит/с, 23.976 fps
Аудио 1: Русский, AC3, 6 ch, 448 Кбит/с Дубляж + вставки Позитив мм на расширенные места
Аудио 2: Русский, AC3, 6 ch, 640 Кбит/с Многоголосый закадровый, Позитив-Мультимедиа
Аудио 3: Русский, AC3, 6 ch, 640 Кбит/с Многоголосый закадровый, Киномания/Супербит-СРИ
Аудио 4: Русский, АС3, 6 ch, 640 Кбит/с Одноголосый закадровый, А.Гаврилов
Аудио 5: Русский, АС3, 6 ch, 640 Кбит/с Одноголосый закадровый, С.Рябов
Аудио 6: Английский, AC3, 6 ch, 640 Кбит/с Оригинал
Аудио 7: Английский, АС3, 2 ch, 192 Кбит/с Commentary with Director & Writers
Субтитры: Русские(форс, 2х полные), украинские, английские(форс, полные)
Главы: Есть

Инфо файл

x264 info: frame I:2456 Avg QP:13.72 size:218182
x264 info: frame P:86206 Avg QP:15.21 size:109652
x264 info: frame B:239756 Avg QP:17.06 size: 51157
Общее
Уникальный идентификатор : 185711141136734341245435140451570475864 (0x8BB6AA2E820DB04B9681C77A4716E358)
Полное имя : I:Хоббит-Властелин колец Коллекция4 Властелин колец Братство кольца 2001г. BDRip 1080p.mkv
Формат : Matroska
Версия формата : Version 2
Размер файла : 26,9 Гбайт
Продолжительность : 3 ч. 48 м.
Общий поток : 16,8 Мбит/сек
Название фильма : Властелин колец: Братство кольца 2001г. от mister.hats
Дата кодирования : UTC 2019-12-25 10:18:05
Программа кодирования : mkvmerge v5.8.0 ('No Sleep / Pillow') built on Sep 2 2012 15:37:04
Библиотека кодирования : libebml v1.2.3 + libmatroska v1.3.0
Видео
Идентификатор : 1
Формат : AVC
Формат/Информация : Advanced Video Codec
Профиль формата : High@L4.1
Настройки формата : CABAC / 5 Ref Frames
Параметр CABAC формата : Да
Параметр RefFrames формата : 5 кадров
Идентификатор кодека : V_MPEG4/ISO/AVC
Продолжительность : 3 ч. 48 м.
Битрейт : 13,0 Мбит/сек
Ширина : 1920 пикселей
Высота : 800 пикселей
Соотношение сторон : 2,40:1
Режим частоты кадров : Постоянный
Частота кадров : 23,976 (24000/1001) кадра/сек
Цветовое пространство : YUV
Субдискретизация насыщенности : 4:2:0
Битовая глубина : 8 бит
Тип развёртки : Прогрессивная
Бит/(Пиксели*Кадры) : 0.353
Размер потока : 20,2 Гбайт (75%)
Библиотека кодирования : x264 core 152 r2851kMod ba24899
Настройки программы : cabac=1 / ref=5 / deblock=1:-2:-2 / analyse=0x3:0x113 / me=umh / subme=11 / psy=1 / fade_compensate=0.00 / psy_rd=1.00:0.00 / mixed_ref=1 / me_range=48 / chroma_me=1 / trellis=2 / 8x8dct=1 / cqm=0 / deadzone=21,11 / fast_pskip=0 / chroma_qp_offset=-2 / threads=12 / lookahead_threads=2 / sliced_threads=0 / nr=0 / decimate=0 / interlaced=0 / bluray_compat=0 / constrained_intra=0 / bframes=9 / b_pyramid=2 / b_adapt=2 / b_bias=0 / direct=3 / weightb=1 / open_gop=0 / weightp=2 / keyint=240 / keyint_min=23 / scenecut=40 / intra_refresh=0 / rc_lookahead=40 / rc=2pass / mbtree=0 / bitrate=13000 / ratetol=1.0 / qcomp=0.60 / qpmin=0 / qpmax=39 / qpstep=4 / cplxblur=20.0 / qblur=0.5 / vbv_maxrate=50000 / vbv_bufsize=62500 / nal_hrd=none / filler=0 / ip_ratio=1.15 / pb_ratio=1.30 / aq=2:0.90
Язык : English
Default : Да
Forced : Нет
Цветовой диапазон : Limited
Основные цвета : BT.709
Характеристики трансфера : BT.709
Коэффициенты матрицы : BT.709
Аудио #1
Идентификатор : 2
Формат : AC-3
Формат/Информация : Audio Coding 3
Параметр Endianness формата : Big
Идентификатор кодека : A_AC3
Продолжительность : 3 ч. 48 м.
Вид битрейта : Постоянный
Битрейт : 448 Кбит/сек
Каналы : 6 каналов
Расположение каналов : Front: L C R, Side: L R, LFE
Частота : 48,0 КГц
Частота кадров : 31,250 кадров/сек (1536 SPF)
Битовая глубина : 16 бит
Метод сжатия : С потерями
Размер потока : 732 Мбайт (3%)
Заголовок : Дубляж + вставки многоголосый Позитив-Мультимедиа (на расширенные места)
Язык : Russian
Default : Да
Forced : Нет
Аудио #2
Идентификатор : 3
Формат : AC-3
Формат/Информация : Audio Coding 3
Параметр Endianness формата : Big
Идентификатор кодека : A_AC3
Продолжительность : 3 ч. 48 м.
Вид битрейта : Постоянный
Битрейт : 640 Кбит/сек
Каналы : 6 каналов
Расположение каналов : Front: L C R, Side: L R, LFE
Частота : 48,0 КГц
Частота кадров : 31,250 кадров/сек (1536 SPF)
Битовая глубина : 16 бит
Метод сжатия : С потерями
Размер потока : 1,02 Гбайт (4%)
Заголовок : Многоголосый закадровый, Позитив-Мультимедиа
Язык : Russian
Default : Нет
Forced : Нет
Аудио #3
Идентификатор : 4
Формат : AC-3
Формат/Информация : Audio Coding 3
Параметр Endianness формата : Big
Идентификатор кодека : A_AC3
Продолжительность : 3 ч. 48 м.
Вид битрейта : Постоянный
Битрейт : 640 Кбит/сек
Каналы : 6 каналов
Расположение каналов : Front: L C R, Side: L R, LFE
Частота : 48,0 КГц
Частота кадров : 31,250 кадров/сек (1536 SPF)
Битовая глубина : 16 бит
Метод сжатия : С потерями
Размер потока : 1,02 Гбайт (4%)
Заголовок : Многоголосый закадровый, Киномания/Супербит-СРИ
Язык : Russian
Default : Нет
Forced : Нет
Аудио #4
Идентификатор : 5
Формат : AC-3
Формат/Информация : Audio Coding 3
Параметр Endianness формата : Big
Идентификатор кодека : A_AC3
Продолжительность : 3 ч. 48 м.
Вид битрейта : Постоянный
Битрейт : 640 Кбит/сек
Каналы : 6 каналов
Расположение каналов : Front: L C R, Side: L R, LFE
Частота : 48,0 КГц
Частота кадров : 31,250 кадров/сек (1536 SPF)
Битовая глубина : 16 бит
Метод сжатия : С потерями
Размер потока : 1,02 Гбайт (4%)
Заголовок : Одноголосый закадровый, А.Гаврилов
Язык : Russian
Default : Нет
Forced : Нет
Аудио #5
Идентификатор : 6
Формат : AC-3
Формат/Информация : Audio Coding 3
Параметр Endianness формата : Big
Идентификатор кодека : A_AC3
Продолжительность : 3 ч. 48 м.
Вид битрейта : Постоянный
Битрейт : 640 Кбит/сек
Каналы : 6 каналов
Расположение каналов : Front: L C R, Side: L R, LFE
Частота : 48,0 КГц
Частота кадров : 31,250 кадров/сек (1536 SPF)
Битовая глубина : 16 бит
Метод сжатия : С потерями
Размер потока : 1,02 Гбайт (4%)
Заголовок : Одноголосый закадровый, С.Рябов
Язык : Russian
Default : Нет
Forced : Нет
Аудио #6
Идентификатор : 7
Формат : AC-3
Формат/Информация : Audio Coding 3
Параметр Endianness формата : Big
Идентификатор кодека : A_AC3
Продолжительность : 3 ч. 48 м.
Вид битрейта : Постоянный
Битрейт : 640 Кбит/сек
Каналы : 6 каналов
Расположение каналов : Front: L C R, Side: L R, LFE
Частота : 48,0 КГц
Частота кадров : 31,250 кадров/сек (1536 SPF)
Битовая глубина : 16 бит
Метод сжатия : С потерями
Размер потока : 1,02 Гбайт (4%)
Заголовок : Оригинал
Язык : English
Default : Нет
Forced : Нет
Аудио #7
Идентификатор : 8
Формат : AC-3
Формат/Информация : Audio Coding 3
Режим : Dolby Digital
Параметр Endianness формата : Big
Идентификатор кодека : A_AC3
Продолжительность : 3 ч. 48 м.
Вид битрейта : Постоянный
Битрейт : 192 Кбит/сек
Каналы : 2 канала
Расположение каналов : Front: L R
Частота : 48,0 КГц
Частота кадров : 31,250 кадров/сек (1536 SPF)
Битовая глубина : 16 бит
Метод сжатия : С потерями
Размер потока : 314 Мбайт (1%)
Заголовок : Commentary with Director & Writers
Язык : English
Default : Нет
Forced : Нет
Текст #1
Идентификатор : 9
Формат : UTF-8
Идентификатор кодека : S_TEXT/UTF8
Идентификатор кодека/Информация : UTF-8 Plain Text
Заголовок : forced
Язык : Russian
Default : Да
Forced : Нет
Текст #2
Идентификатор : 10
Формат : UTF-8
Идентификатор кодека : S_TEXT/UTF8
Идентификатор кодека/Информация : UTF-8 Plain Text
Язык : Russian
Default : Нет
Forced : Нет
Текст #3
Идентификатор : 11
Формат : UTF-8
Идентификатор кодека : S_TEXT/UTF8
Идентификатор кодека/Информация : UTF-8 Plain Text
Язык : Ukrainian
Default : Нет
Forced : Нет
Текст #4
Идентификатор : 12
Формат : UTF-8
Идентификатор кодека : S_TEXT/UTF8
Идентификатор кодека/Информация : UTF-8 Plain Text
Заголовок : forced
Язык : English
Default : Нет
Forced : Нет
Текст #5
Идентификатор : 13
Формат : UTF-8
Идентификатор кодека : S_TEXT/UTF8
Идентификатор кодека/Информация : UTF-8 Plain Text
Язык : English
Default : Нет
Forced : Нет
Меню
00:00:00.000 : en:Prologue: One Ring to Rule Them All...
00:07:36.790 : en:Concerning Hobbits
00:10:35.552 : en:The Shire
00:15:39.856 : en:Very Old Friends
00:19:58.489 : en:A Long-expected Party
00:25:32.614 : en:Farewell Dear Bilbo
00:29:57.379 : en:Keep It Secret, Keep It Safe
00:32:10.679 : en:The Account of Isildur
00:34:51.798 : en:At the Green Dragon
00:36:18.176 : en:The Shadow of the Past
00:45:04.160 : en:The Passing of the Elves
00:46:44.301 : en:Saruman the White
00:51:21.412 : en:A Short Cut to Mushrooms
00:55:12.434 : en:Bucklebury Ferry
00:57:30.072 : en:At the Sign of the Prancing Pony
01:03:31.516 : en:The Nazgul
01:07:16.115 : en:The Midgewater Marshes
01:08:53.588 : en:The Spoiling of Isengard
01:10:35.940 : en:A Knife in the Dark
01:15:15.386 : en:The Caverns of Isengard
01:17:46.620 : en:Flight to the Ford
01:24:11.546 : en:Rivendell
01:26:12.501 : en:Many Meetings
01:29:41.585 : en:The Fate of the Ring
01:33:14.672 : en:The Sword That Was Broken
01:35:54.082 : en:The Evenstar
01:37:32.972 : en:The Council of Elrond
01:45:43.420 : en:Gilraen's Memorial
01:46:59.246 : en:Bilbo's Gifts
01:48:42.641 : en:The Departure of the Fellowship
01:50:00.051 : en:The Ring Goes South
01:53:05.862 : en:The Pass of Caradhras
01:57:52.148 : en:Moria
02:04:17.533 : en:A Journey in the Dark
02:10:47.881 : en:Balin's Tomb
02:20:12.612 : en:The Bridge of Khazad-dum
02:29:54.068 : en:Lothlorien
02:33:06.719 : en:Caras Galadhon
02:40:23.739 : en:The Mirror of Galadriel
02:46:03.745 : en:The Fighting Uruk-hai
02:47:45.096 : en:Farewell to Lorien
02:53:07.627 : en:The Great River
02:57:59.877 : en:Parth Galen
03:04:27.639 : en:The Beaking of the Fellowship
03:11:43.575 : en:The Departure of Boromir
03:14:25.904 : en:The Road Goes Ever On...
03:20:44.073 : en:End Credits
03:28:24.575 : en:Fan Club Credits

Властелин колец: Две крепости / The Lord of the Rings: The Two Towers (2002)

Властелин колец: Две крепости
The Lord of the Rings: The Two Towers
"The adventure continues»
Год выпуска: 2002
Страна: США, Новая Зеландия
Жанр: Фэнтези, приключения.
Продолжительность: 03:55:31
Перевод: Дубляж, многоголосый закадровый, авторский
Режиссер: Питер Джексон / Peter Jackson
В ролях: Элайджа Вуд, Шон Эстин, Вигго Мортенсен, Иэн МакКеллен, Доминик Монахэн, Билли Бойд, Шон Бин, Орландо Блум, Джон Рис-Дэвис, Кристофер Ли
Описание: Братство распалось, но Кольцо Всевластья должно быть уничтожено. Фродо и Сэм вынуждены доверить свои жизни Голлуму, который взялся провести их к вратам Мордора. Громадная Армия Сарумана приближается: члены братства и их союзники готовы принять бой. Битва за Средиземье продолжается.


Кодек: H264
Качество: BDRip 1080p
Видео: MPEG-4 AVC, 1908x800, 15000 Кбит/с, 23.976 fps
Аудио 1: Русский, AC3, 6 ch, 448 Кбит/с Дубляж + вставки Позитив мм на расширенные места
Аудио 2: Русский, AC3, 6 ch, 640 Кбит/с Многоголосый закадровый, Позитив-Мультимедиа
Аудио 3: Русский, AC3, 6 ch, 640 Кбит/с Многоголосый закадровый, Киномания/Супербит-СРИ
Аудио 4: Русский, АС3, 6 ch, 640 Кбит/с Одноголосый закадровый, А.Гаврилов
Аудио 5: Русский, АС3, 6 ch, 640 Кбит/с Одноголосый закадровый, С.Рябов
Аудио 6: Английский, АС3, 6 ch, 640 Кбит/с Оригинал
Аудио 7: Английский, АС3, 2 ch, 192 Кбит/с Commentary with Director & Writers
Субтитры: Русские(форс, полные), украинские, английские(форс, полные)
Главы: Есть

Инфо файл

x264 info: frame I:2215 Avg QP:14.37 size:224131
x264 info: frame P:90242 Avg QP:16.40 size:115891
x264 info: frame B:246327 Avg QP:18.36 size: 63034
Общее
Уникальный идентификатор : 246081722526325204704388480265822310029 (0xB9219DA63F55DF2CADA25D7CA6168E8D)
Полное имя : I:Хоббит-Властелин колец Коллекция5 Властелин колец Две крепости 2002г. BDRip 1080p.mkv
Формат : Matroska
Версия формата : Version 2
Размер файла : 31,0 Гбайт
Продолжительность : 3 ч. 55 м.
Общий поток : 18,8 Мбит/сек
Название фильма : Властелин колец: Две крепости2002г. от mister.hats
Дата кодирования : UTC 2019-12-26 11:07:47
Программа кодирования : mkvmerge v5.8.0 ('No Sleep / Pillow') built on Sep 2 2012 15:37:04
Библиотека кодирования : libebml v1.2.3 + libmatroska v1.3.0
Видео
Идентификатор : 1
Формат : AVC
Формат/Информация : Advanced Video Codec
Профиль формата : High@L4.1
Настройки формата : CABAC / 5 Ref Frames
Параметр CABAC формата : Да
Параметр RefFrames формата : 5 кадров
Идентификатор кодека : V_MPEG4/ISO/AVC
Продолжительность : 3 ч. 55 м.
Битрейт : 15,0 Мбит/сек
Ширина : 1908 пикселей
Высота : 800 пикселей
Соотношение сторон : 2,40:1
Режим частоты кадров : Постоянный
Частота кадров : 23,976 (24000/1001) кадра/сек
Цветовое пространство : YUV
Субдискретизация насыщенности : 4:2:0
Битовая глубина : 8 бит
Тип развёртки : Прогрессивная
Бит/(Пиксели*Кадры) : 0.410
Размер потока : 24,1 Гбайт (78%)
Библиотека кодирования : x264 core 152 r2851kMod ba24899
Настройки программы : cabac=1 / ref=5 / deblock=1:-3:-3 / analyse=0x3:0x113 / me=umh / subme=11 / psy=1 / fade_compensate=0.00 / psy_rd=1.00:0.00 / mixed_ref=1 / me_range=48 / chroma_me=1 / trellis=2 / 8x8dct=1 / cqm=0 / deadzone=21,11 / fast_pskip=0 / chroma_qp_offset=-2 / threads=12 / lookahead_threads=3 / sliced_threads=0 / nr=0 / decimate=0 / interlaced=0 / bluray_compat=0 / constrained_intra=0 / bframes=10 / b_pyramid=2 / b_adapt=2 / b_bias=0 / direct=3 / weightb=1 / open_gop=0 / weightp=2 / keyint=240 / keyint_min=23 / scenecut=40 / intra_refresh=0 / rc_lookahead=40 / rc=2pass / mbtree=0 / bitrate=15000 / ratetol=1.0 / qcomp=0.60 / qpmin=0 / qpmax=39 / qpstep=4 / cplxblur=20.0 / qblur=0.5 / vbv_maxrate=50000 / vbv_bufsize=62500 / nal_hrd=none / filler=0 / ip_ratio=1.25 / pb_ratio=1.30 / aq=2:0.90
Язык : English
Default : Да
Forced : Нет
Цветовой диапазон : Limited
Основные цвета : BT.709
Характеристики трансфера : BT.709
Коэффициенты матрицы : BT.709
Аудио #1
Идентификатор : 2
Формат : AC-3
Формат/Информация : Audio Coding 3
Параметр Endianness формата : Big
Идентификатор кодека : A_AC3
Продолжительность : 3 ч. 55 м.
Вид битрейта : Постоянный
Битрейт : 448 Кбит/сек
Каналы : 6 каналов
Расположение каналов : Front: L C R, Side: L R, LFE
Частота : 48,0 КГц
Частота кадров : 31,250 кадров/сек (1536 SPF)
Битовая глубина : 16 бит
Метод сжатия : С потерями
Размер потока : 755 Мбайт (2%)
Заголовок : Дубляж + вставки многоголосый Позитив-Мультимедиа (на расширенные места)
Язык : Russian
Default : Да
Forced : Нет
Аудио #2
Идентификатор : 3
Формат : AC-3
Формат/Информация : Audio Coding 3
Параметр Endianness формата : Big
Идентификатор кодека : A_AC3
Продолжительность : 3 ч. 55 м.
Вид битрейта : Постоянный
Битрейт : 640 Кбит/сек
Каналы : 6 каналов
Расположение каналов : Front: L C R, Side: L R, LFE
Частота : 48,0 КГц
Частота кадров : 31,250 кадров/сек (1536 SPF)
Битовая глубина : 16 бит
Метод сжатия : С потерями
Размер потока : 1,05 Гбайт (3%)
Заголовок : Многоголосый закадровый, Позитив-Мультимедиа
Язык : Russian
Default : Нет
Forced : Нет
Аудио #3
Идентификатор : 4
Формат : AC-3
Формат/Информация : Audio Coding 3
Параметр Endianness формата : Big
Идентификатор кодека : A_AC3
Продолжительность : 3 ч. 55 м.
Вид битрейта : Постоянный
Битрейт : 640 Кбит/сек
Каналы : 6 каналов
Расположение каналов : Front: L C R, Side: L R, LFE
Частота : 48,0 КГц
Частота кадров : 31,250 кадров/сек (1536 SPF)
Битовая глубина : 16 бит
Метод сжатия : С потерями
Размер потока : 1,05 Гбайт (3%)
Заголовок : Многоголосый закадровый, Киномания/Супербит-СРИ
Язык : Russian
Default : Нет
Forced : Нет
Аудио #4
Идентификатор : 5
Формат : AC-3
Формат/Информация : Audio Coding 3
Параметр Endianness формата : Big
Идентификатор кодека : A_AC3
Продолжительность : 3 ч. 55 м.
Вид битрейта : Постоянный
Битрейт : 640 Кбит/сек
Каналы : 6 каналов
Расположение каналов : Front: L C R, Side: L R, LFE
Частота : 48,0 КГц
Частота кадров : 31,250 кадров/сек (1536 SPF)
Битовая глубина : 16 бит
Метод сжатия : С потерями
Размер потока : 1,05 Гбайт (3%)
Заголовок : Одноголосый закадровый, А.Гаврилов
Язык : Russian
Default : Нет
Forced : Нет
Аудио #5
Идентификатор : 6
Формат : AC-3
Формат/Информация : Audio Coding 3
Параметр Endianness формата : Big
Идентификатор кодека : A_AC3
Продолжительность : 3 ч. 55 м.
Вид битрейта : Постоянный
Битрейт : 640 Кбит/сек
Каналы : 6 каналов
Расположение каналов : Front: L C R, Side: L R, LFE
Частота : 48,0 КГц
Частота кадров : 31,250 кадров/сек (1536 SPF)
Битовая глубина : 16 бит
Метод сжатия : С потерями
Размер потока : 1,05 Гбайт (3%)
Заголовок : Одноголосый закадровый, С.Рябов
Язык : Russian
Default : Нет
Forced : Нет
Аудио #6
Идентификатор : 7
Формат : AC-3
Формат/Информация : Audio Coding 3
Параметр Endianness формата : Big
Идентификатор кодека : A_AC3
Продолжительность : 3 ч. 55 м.
Вид битрейта : Постоянный
Битрейт : 640 Кбит/сек
Каналы : 6 каналов
Расположение каналов : Front: L C R, Side: L R, LFE
Частота : 48,0 КГц
Частота кадров : 31,250 кадров/сек (1536 SPF)
Битовая глубина : 16 бит
Метод сжатия : С потерями
Размер потока : 1,05 Гбайт (3%)
Заголовок : Оригинал
Язык : English
Default : Нет
Forced : Нет
Аудио #7
Идентификатор : 8
Формат : AC-3
Формат/Информация : Audio Coding 3
Режим : Dolby Digital
Параметр Endianness формата : Big
Идентификатор кодека : A_AC3
Продолжительность : 3 ч. 55 м.
Вид битрейта : Постоянный
Битрейт : 192 Кбит/сек
Каналы : 2 канала
Расположение каналов : Front: L R
Частота : 48,0 КГц
Частота кадров : 31,250 кадров/сек (1536 SPF)
Битовая глубина : 16 бит
Метод сжатия : С потерями
Размер потока : 323 Мбайт (1%)
Заголовок : Commentary with Director & Writers
Язык : English
Default : Нет
Forced : Нет
Текст #1
Идентификатор : 9
Формат : UTF-8
Идентификатор кодека : S_TEXT/UTF8
Идентификатор кодека/Информация : UTF-8 Plain Text
Заголовок : forced
Язык : Russian
Default : Да
Forced : Нет
Текст #2
Идентификатор : 10
Формат : UTF-8
Идентификатор кодека : S_TEXT/UTF8
Идентификатор кодека/Информация : UTF-8 Plain Text
Язык : Russian
Default : Нет
Forced : Нет
Текст #3
Идентификатор : 11
Формат : UTF-8
Идентификатор кодека : S_TEXT/UTF8
Идентификатор кодека/Информация : UTF-8 Plain Text
Язык : Ukrainian
Default : Нет
Forced : Нет
Текст #4
Идентификатор : 12
Формат : UTF-8
Идентификатор кодека : S_TEXT/UTF8
Идентификатор кодека/Информация : UTF-8 Plain Text
Заголовок : forced
Язык : English
Default : Нет
Forced : Нет
Текст #5
Идентификатор : 13
Формат : UTF-8
Идентификатор кодека : S_TEXT/UTF8
Идентификатор кодека/Информация : UTF-8 Plain Text
Язык : English
Default : Нет
Forced : Нет
Меню
00:00:00.000 : en:The Foundations of Stone
00:04:08.748 : en:Elven Rope
00:06:10.829 : en:The Taming of Smeagol
00:14:44.967 : en:The Uruk-hai
00:17:06.609 : en:The Three Hunters
00:19:17.948 : en:The Burning of the Westfold
00:23:07.094 : en:Massacre at the Fords of Isen
00:23:58.312 : en:The Banishment of Eomer
00:27:09.044 : en:On the Trail of the Uruk-hai
00:28:03.181 : en:Night Camp at Fangorn
00:31:38.230 : en:The Riders of Rohan
00:35:45.518 : en:The Fate of Merry and Pippin
00:38:17.879 : en:Treebeard
00:41:47.797 : en:The Passage of the Marshes
00:50:49.755 : en:The White Rider
00:58:19.413 : en:The Song of the Entwives
01:00:40.178 : en:The Heir of Numenor
01:02:48.306 : en:The Black Gate Is Closed
01:08:05.999 : en:Ent Draft
01:12:41.732 : en:The King of the Golden Hall
01:24:17.344 : en:The Funeral of Theodred
01:25:41.636 : en:Simbelmyne on the Burial Mounds
01:27:34.332 : en:The King's Decision
01:30:45.523 : en:Brego
01:32:30.587 : en:The Ring of Barahir
01:34:31.040 : en:A Daughter of Kings
01:35:57.043 : en:Exodus From Edoras
01:37:02.316 : en:The Forests of Ithilien
01:38:43.960 : en:Gollum and Smeagol
01:41:14.819 : en:Of Herbs and Stewed Rabbit
01:46:39.184 : en:Dwarf Women
01:47:21.977 : en:One of the Dunedain
01:49:51.835 : en:The Evenstar
01:54:58.391 : en:The Wolves of Isengard
02:01:36.580 : en:Helm's Deep
02:04:16.699 : en:Isengard Unleashed
02:06:53.147 : en:The Grace of the Valar
02:08:30.703 : en:Arwen's Fate
02:12:13.467 : en:The Story Foreseen From Lorien
02:14:39.446 : en:The Window on the West
02:18:29.050 : en:Sons of the Steward
02:23:08.621 : en:The Forbidden Pool
02:30:30.312 : en:Aragorn's Return
02:36:03.562 : en:Entmoot
02:37:23.434 : en:The Glittering Caves
02:40:31.705 : en:"Where Is the Horse and the Rider?"
02:42:16.435 : en:"Don't Be Hasty, Master Meriadoc!"
02:43:07.110 : en:The Host of the Eldar
02:46:41.199 : en:The Battle of the Hornburg
02:53:03.581 : en:Old Entish
02:54:40.636 : en:The Breach of the Deeping Wall
02:58:05.758 : en:The Entmoot Decides
02:59:50.905 : en:The Retreat to the Hornburg
03:05:53.392 : en:Master Peregrin's Plan
03:07:18.477 : en:Osgiliath
03:07:53.220 : en:The Last March of the Ents
03:10:22.744 : en:The Nazgul Attack
03:12:54.729 : en:Forth Eorlingas
03:17:33.216 : en:The Flooding of Isengard
03:19:59.570 : en:The Tales That Really Mattered...
03:24:44.855 : en:Fangorn Comes to Helm's Deep
03:25:37.408 : en:The Final Tally
03:26:17.948 : en:Flotsam and Jetsam
03:28:21.739 : en:Farewell to Faramir
03:30:51.597 : en:"The Battle for Middle-earth Is About to Begin"
03:32:31.280 : en:Gollum's Plan
03:34:55.424 : en:End Credits
03:43:51.709 : en:Fan Club Credits

Властелин колец: Возвращение Короля / The Lord of the Rings: The Return of the King (2003)


Властелин колец: Возвращение Короля
The Lord of the Rings: The Return of the King
«There can be no triumph without loss. No victory without suffering. No freedom without sacrifice»

Год выпуска: 2003
Страна: США, Новая Зеландия
Выпущено: New Line Cinema, WingNut Films, The Saul Zaentz Company See more
Жанр: Фэнтези, драма, приключения
Продолжительность: 04:23:17
Перевод: Дубляж, многоголосый закадровый, авторский
Режиссер: Питер Джексон / Peter Jackson
В ролях: Элайджа Вуд, Шон Эстин, Вигго Мортенсен, Иэн МакКеллен, Доминик Монахэн, Билли Бойд, Шон Бин, Орландо Блум, Джон Рис-Дэвис, Кристофер Ли
Описание: Последняя часть трилогии о Кольце Всевластия и о героях, взявших на себя бремя спасения Средиземья. Повелитель сил Тьмы Саурон направляет свои бесчисленные рати под стены Минас-Тирита, крепости Последней Надежды. Он предвкушает близкую победу, но именно это и мешает ему заметить две крохотные фигурки — хоббитов, приближающихся к Роковой Горе, где им предстоит уничтожить Кольцо Всевластия. Улыбнется ли им счастье?


Кодек: H264
Качество: BDRip 1080p
Видео: MPEG-4 AVC, 1920x800, 15500 Кбит/с, 23.976 fps
Аудио 1: Русский, AC3, 6 ch, 448 Кбит/с Дубляж + вставки Позитив мм на расширенные места
Аудио 2: Русский, AC3, 6 ch, 640 Кбит/с Многоголосый закадровый, Позитив-Мультимедиа
Аудио 3: Русский, AC3, 6 ch, 640 Кбит/с Многоголосый закадровый, Киномания/Супербит-СРИ
Аудио 4: Русский, АС3, 6 ch, 640 Кбит/с Одноголосый закадровый, А.Гаврилов
Аудио 5: Русский, АС3, 6 ch, 640 Кбит/с Одноголосый закадровый, С.Рябов
Аудио 6: Английский, AC3, 6 ch, 640 Кбит/с Оригинал
Аудио 7: Английский, АС3, 2 ch, 192 Кбит/с Commentary with Director & Writers
Субтитры: Русские(форс, 2х полные), украинские, английские
Главы: Есть

Инфо файл

x264 info: frame I:2412 Avg QP:16.11 size:231617
x264 info: frame P:98368 Avg QP:18.17 size:125621
x264 info: frame B:277938 Avg QP:20.05 size: 63638
Общее
Уникальный идентификатор : 220926315872624116110367975193493025122 (0xA634DC586C38E5AE9399A02F63C6B162)
Полное имя : I:Хоббит-Властелин колец Коллекция6 Властелин колец Возвращение короля 2003г. BDRip 1080p.mkv
Формат : Matroska
Версия формата : Version 2
Размер файла : 35,6 Гбайт
Продолжительность : 4 ч. 23 м.
Общий поток : 19,3 Мбит/сек
Название фильма : Властелин колец: Возвращение Короля 2003г. от mister.hats
Дата кодирования : UTC 2019-12-27 17:45:19
Программа кодирования : mkvmerge v5.8.0 ('No Sleep / Pillow') built on Sep 2 2012 15:37:04
Библиотека кодирования : libebml v1.2.3 + libmatroska v1.3.0
Видео
Идентификатор : 1
Формат : AVC
Формат/Информация : Advanced Video Codec
Профиль формата : High@L4.1
Настройки формата : CABAC / 5 Ref Frames
Параметр CABAC формата : Да
Параметр RefFrames формата : 5 кадров
Идентификатор кодека : V_MPEG4/ISO/AVC
Продолжительность : 4 ч. 23 м.
Битрейт : 15,5 Мбит/сек
Ширина : 1920 пикселей
Высота : 800 пикселей
Соотношение сторон : 2,40:1
Режим частоты кадров : Постоянный
Частота кадров : 23,976 (24000/1001) кадра/сек
Цветовое пространство : YUV
Субдискретизация насыщенности : 4:2:0
Битовая глубина : 8 бит
Тип развёртки : Прогрессивная
Бит/(Пиксели*Кадры) : 0.421
Размер потока : 27,8 Гбайт (78%)
Библиотека кодирования : x264 core 152 r2851kMod ba24899
Настройки программы : cabac=1 / ref=5 / deblock=1:-3:-3 / analyse=0x3:0x113 / me=umh / subme=11 / psy=1 / fade_compensate=0.00 / psy_rd=1.00:0.00 / mixed_ref=1 / me_range=48 / chroma_me=1 / trellis=2 / 8x8dct=1 / cqm=0 / deadzone=21,11 / fast_pskip=0 / chroma_qp_offset=-2 / threads=12 / lookahead_threads=2 / sliced_threads=0 / nr=0 / decimate=0 / interlaced=0 / bluray_compat=0 / constrained_intra=0 / bframes=9 / b_pyramid=2 / b_adapt=2 / b_bias=0 / direct=3 / weightb=1 / open_gop=0 / weightp=2 / keyint=240 / keyint_min=23 / scenecut=40 / intra_refresh=0 / rc_lookahead=40 / rc=2pass / mbtree=0 / bitrate=15500 / ratetol=1.0 / qcomp=0.60 / qpmin=0 / qpmax=39 / qpstep=4 / cplxblur=20.0 / qblur=0.5 / vbv_maxrate=50000 / vbv_bufsize=62500 / nal_hrd=none / filler=0 / ip_ratio=1.22 / pb_ratio=1.30 / aq=3:0.70
Язык : English
Default : Да
Forced : Нет
Цветовой диапазон : Limited
Основные цвета : BT.709
Характеристики трансфера : BT.709
Коэффициенты матрицы : BT.709
Аудио #1
Идентификатор : 2
Формат : AC-3
Формат/Информация : Audio Coding 3
Параметр Endianness формата : Big
Идентификатор кодека : A_AC3
Продолжительность : 4 ч. 23 м.
Вид битрейта : Постоянный
Битрейт : 448 Кбит/сек
Каналы : 6 каналов
Расположение каналов : Front: L C R, Side: L R, LFE
Частота : 48,0 КГц
Частота кадров : 31,250 кадров/сек (1536 SPF)
Битовая глубина : 16 бит
Метод сжатия : С потерями
Размер потока : 844 Мбайт (2%)
Заголовок : Дубляж + вставки многоголосый Позитив-Мультимедиа (на расширенные места)
Язык : Russian
Default : Да
Forced : Нет
Аудио #2
Идентификатор : 3
Формат : AC-3
Формат/Информация : Audio Coding 3
Параметр Endianness формата : Big
Идентификатор кодека : A_AC3
Продолжительность : 4 ч. 23 м.
Вид битрейта : Постоянный
Битрейт : 640 Кбит/сек
Каналы : 6 каналов
Расположение каналов : Front: L C R, Side: L R, LFE
Частота : 48,0 КГц
Частота кадров : 31,250 кадров/сек (1536 SPF)
Битовая глубина : 16 бит
Метод сжатия : С потерями
Размер потока : 1,18 Гбайт (3%)
Заголовок : Многоголосый закадровый, Позитив-Мультимедиа
Язык : Russian
Default : Нет
Forced : Нет
Аудио #3
Идентификатор : 4
Формат : AC-3
Формат/Информация : Audio Coding 3
Параметр Endianness формата : Big
Идентификатор кодека : A_AC3
Продолжительность : 4 ч. 23 м.
Вид битрейта : Постоянный
Битрейт : 640 Кбит/сек
Каналы : 6 каналов
Расположение каналов : Front: L C R, Side: L R, LFE
Частота : 48,0 КГц
Частота кадров : 31,250 кадров/сек (1536 SPF)
Битовая глубина : 16 бит
Метод сжатия : С потерями
Размер потока : 1,18 Гбайт (3%)
Заголовок : Многоголосый закадровый, Киномания/Супербит-СРИ
Язык : Russian
Default : Нет
Forced : Нет
Аудио #4
Идентификатор : 5
Формат : AC-3
Формат/Информация : Audio Coding 3
Параметр Endianness формата : Big
Идентификатор кодека : A_AC3
Продолжительность : 4 ч. 23 м.
Вид битрейта : Постоянный
Битрейт : 640 Кбит/сек
Каналы : 6 каналов
Расположение каналов : Front: L C R, Side: L R, LFE
Частота : 48,0 КГц
Частота кадров : 31,250 кадров/сек (1536 SPF)
Битовая глубина : 16 бит
Метод сжатия : С потерями
Размер потока : 1,18 Гбайт (3%)
Заголовок : Одноголосый закадровый, А.Гаврилов
Язык : Russian
Default : Нет
Forced : Нет
Аудио #5
Идентификатор : 6
Формат : AC-3
Формат/Информация : Audio Coding 3
Параметр Endianness формата : Big
Идентификатор кодека : A_AC3
Продолжительность : 4 ч. 23 м.
Вид битрейта : Постоянный
Битрейт : 640 Кбит/сек
Каналы : 6 каналов
Расположение каналов : Front: L C R, Side: L R, LFE
Частота : 48,0 КГц
Частота кадров : 31,250 кадров/сек (1536 SPF)
Битовая глубина : 16 бит
Метод сжатия : С потерями
Размер потока : 1,18 Гбайт (3%)
Заголовок : Одноголосый закадровый, С.Рябов
Язык : Russian
Default : Нет
Forced : Нет
Аудио #6
Идентификатор : 7
Формат : AC-3
Формат/Информация : Audio Coding 3
Параметр Endianness формата : Big
Идентификатор кодека : A_AC3
Продолжительность : 4 ч. 23 м.
Вид битрейта : Постоянный
Битрейт : 640 Кбит/сек
Каналы : 6 каналов
Расположение каналов : Front: L C R, Side: L R, LFE
Частота : 48,0 КГц
Частота кадров : 31,250 кадров/сек (1536 SPF)
Битовая глубина : 16 бит
Метод сжатия : С потерями
Размер потока : 1,18 Гбайт (3%)
Заголовок : Оригинал
Язык : English
Default : Нет
Forced : Нет
Аудио #7
Идентификатор : 8
Формат : AC-3
Формат/Информация : Audio Coding 3
Режим : Dolby Digital
Параметр Endianness формата : Big
Идентификатор кодека : A_AC3
Продолжительность : 4 ч. 23 м.
Вид битрейта : Постоянный
Битрейт : 192 Кбит/сек
Каналы : 2 канала
Расположение каналов : Front: L R
Частота : 48,0 КГц
Частота кадров : 31,250 кадров/сек (1536 SPF)
Битовая глубина : 16 бит
Метод сжатия : С потерями
Размер потока : 362 Мбайт (1%)
Заголовок : Commentary with Director & Writers
Язык : English
Default : Нет
Forced : Нет
Текст #1
Идентификатор : 9
Формат : UTF-8
Идентификатор кодека : S_TEXT/UTF8
Идентификатор кодека/Информация : UTF-8 Plain Text
Заголовок : forced
Язык : Russian
Default : Да
Forced : Нет
Текст #2
Идентификатор : 10
Формат : UTF-8
Идентификатор кодека : S_TEXT/UTF8
Идентификатор кодека/Информация : UTF-8 Plain Text
Язык : Russian
Default : Нет
Forced : Нет
Текст #3
Идентификатор : 11
Формат : UTF-8
Идентификатор кодека : S_TEXT/UTF8
Идентификатор кодека/Информация : UTF-8 Plain Text
Язык : Ukrainian
Default : Нет
Forced : Нет
Текст #4
Идентификатор : 12
Формат : UTF-8
Идентификатор кодека : S_TEXT/UTF8
Идентификатор кодека/Информация : UTF-8 Plain Text
Заголовок : forced
Язык : English
Default : Нет
Forced : Нет
Текст #5
Идентификатор : 13
Формат : UTF-8
Идентификатор кодека : S_TEXT/UTF8
Идентификатор кодека/Информация : UTF-8 Plain Text
Язык : English
Default : Нет
Forced : Нет
Меню
00:00:00.000 : en:The Finding of the Ring
00:06:24.342 : en:Journey to the Cross-roads
00:09:21.394 : en:The Road to Isengard
00:11:21.848 : en:The Voice of Saruman
00:18:23.311 : en:Return to Edoras
00:23:05.009 : en:Gollum's Villainy
00:27:03.330 : en:Éowyn's Dream
00:29:00.697 : en:The Palantír
00:37:06.433 : en:Arwen's Vision
00:40:02.567 : en:The Reforging of Narsil
00:42:03.229 : en:Minas Tirith
00:47:52.203 : en:The Decline of Gondor
00:50:18.641 : en:Cross-roads of the Fallen King
00:52:18.761 : en:"The Deep Breath Before the Plunge"
00:55:35.332 : en:Minas Morgul
00:59:36.406 : en:Sam's Warning
01:00:23.703 : en:Pippin's Task
01:00:50.605 : en:Osgiliath Invaded
01:04:30.075 : en:The Lighting of the Beacons
01:07:16.032 : en:Théoden's Decision
01:10:35.314 : en:The Fall of Osgiliath
01:14:54.824 : en:The Wizard's Pupil
01:17:21.971 : en:The Stairs of Cirith Ungol
01:19:21.799 : en:"Courage Is the Best Defense"
01:20:01.088 : en:Peregrin of the Tower Guard
01:21:26.799 : en:Allegiance to Denethor
01:23:48.941 : en:The Parting of Sam and Frodo
01:29:08.593 : en:The Sacrifice of Faramir
01:33:57.590 : en:Marshalling at Dunharrow
01:38:08.049 : en:Andúril - Flame of the West
01:42:49.705 : en:Aragorn Takes the Path of the Dead
01:45:34.245 : en:"No More Despair"
01:46:57.453 : en:Dwimorberg - The Haunted Mountain
01:49:24.433 : en:The Muster of Rohan
01:51:09.997 : en:The Paths of the Dead
01:58:39.696 : en:The Siege of Gondor
02:07:40.235 : en:The Corsairs of Umbar
02:08:42.714 : en:Shelob's Lair
02:17:50.386 : en:Merry's Simple Courage
02:19:40.705 : en:Grond - The Hammer of the Underworld
02:20:17.074 : en:The Tomb of the Stewards
02:21:50.710 : en:Breaking the Gate of Gondor
02:22:57.526 : en:The Choices of Master Samwise
02:28:59.263 : en:Denethor's Madness
02:30:04.578 : en:The Witch King's Hour
02:32:29.598 : en:The Ride of the Rohirrim
02:36:44.019 : en:The Pyre of Denethor
02:38:51.104 : en:The Battle of the Pelennor Fields
02:43:46.649 : en:"A Far Green Country"
02:45:17.073 : en:The Nazgûl and His Prey
02:47:03.012 : en:The Black Ships
02:47:55.439 : en:Shieldmaiden of Rohan
02:48:39.692 : en:Victory at Minas Tirith
02:51:15.389 : en:The Passing of Théoden
02:53:18.095 : en:Oaths Fulfilled
02:54:25.037 : en:The Houses of Healing
02:56:41.048 : en:Pippin Looks After Merry
02:57:33.100 : en:The Tower of Cirith Ungol
03:04:29.015 : en:The Last Debate
03:06:11.368 : en:Aragorn Masters the Palatír
03:07:40.457 : en:The Captain and the White Lady
03:08:30.590 : en:In the Company of Orcs
03:12:11.978 : en:The Land of Shadow
03:16:23.688 : en:The Mouth of Sauron
03:19:39.592 : en:The Black Gate Opens
03:23:13.389 : en:"I Can't Carry It for You... But I Can Carry You."
03:25:26.188 : en:The Last Move
03:26:29.293 : en:Mount Doom
03:28:25.367 : en:"The Eagles Are Coming!"
03:28:59.693 : en:The Crack of Doom
03:34:37.947 : en:Sauron Defeated
03:36:51.331 : en:The End of All Things
03:40:20.331 : en:The Fellowship Reunited
03:42:43.432 : en:The Return of the King
03:47:36.475 : en:Homeward Bound
03:52:18.382 : en:The Grey Havens
04:01:36.982 : en:End Credits
04:12:44.398 : en:Fan Club Credits
Показать сообщения:    

Текущее время: 06-Авг 10:32

Часовой пояс: UTC - 5



Вы не можете начинать темы
Вы не можете отвечать на сообщения
Вы не можете редактировать свои сообщения
Вы не можете удалять свои сообщения
Вы не можете голосовать в опросах
Вы не можете прикреплять файлы к сообщениям
Вы не можете скачивать файлы