Регистрация ·
Имя: Пароль:  
· Забыли пароль? · Вопросы от гостей
Круиз по джунглям
Pazl Voice
WEB-DLRip-AVC
Папа Закодировался
Не требуется
WEB-DLRip
Маша
Не требуется
WEBRip
Прячься
iTunes
WEB-DL 1080p
The Ascent
RePack
Action, RPG
Форсаж 9
Чистый звук
WEB-DL 720p
Форсаж 9
Чистый звук
WEB-DLRip
Форсаж 9
Pazl Voice
WEB-DL 1080p
Папа за маму
iTunes
WEB-DLRip
Windows 7/10
Microsoft
7.7.2021
Убойные каникулы
Кураж-Бамбей
BDRip 720p
Уважаемые гости сайта! Добро Пожаловать на наш торрент трекер,где Вы можете бесплатно скачать любой Софт,Фильмы,Музыку и многое другое! А так же постоянно ведется набор модераторов и релизеров. Зарегистрируйтесь сейчас, чтобы получить доступ ко всем функциям. После регистрации или входа на сайт вы сможете создавать темы, отвечать на сообщения и скачивать файлы.

До нового года осталось

Qotillik Uchun Uch Kun / 3 дня на убийство | 3 Days to Kill (MCG / Мак Джи) [2014, Jangari, Kriminal, Drama, Jinoyat, BluRay 1080p x264] O'zbek Tilida

Статистика раздачи
Скачал: [ 1 ]
Сегодня идет свободное скачивание без начисления Download
 
     
 
 
Автор Сообщение

N.U.R.I.K.B.E.K ®

Не в сети

5417

Пол: Мужской

Стаж: 2 года 5 месяцев

Сообщений: 45

Откуда: Jizzax.Paxtakor

Карма: 111

[+]

Провайдер: UzOnline UzOnline

Наличие запрета:



Награды: Нет

[Профиль] ЛС

Создавать темы 12-Авг-2020 08:48

Цитировать

-Qotillik Uchun Uch Kun | 3 дня на убийство | 3 Days to Kill
--Год выпуска: 2014
Страна: AQSH
Жанр: Jangari, Kriminal, Drama, Jinoyat.
Продолжительность: 02:02:18
Перевод: Профессиональный MY5 O'zbek Tilida--Режиссер: MCG / Мак Джи.--В ролях: Kevin Kostner, Amber Xerd, Xeyli Staynfeld, Konni Nilsen, Tomas Lemarkus, Richard Zammel, Mark Andreoni, Bruno Richi, Jonas Blok, Erik Eboni--Описание: Yashirin laboratoriyada olimlar har qanday davolanmaydigan kasallikka dosh berishga imkon beradigan dori ishlab chiqdilar. Maxsus xizmatlarning rahbariyati ushbu dorilarni maxsus xizmatlarning sobiq agenti Ethan Runnerga topshirishni taklif qilmoqda, unga shifokorlar halokatli tashxisni e'lon qilishgan. Ammo u yana bitta vazifani bajarishi kerak, ammo bu uning hayotini yo'qotishi mumkin. Endi Runner atrofida g'alati narsalar sodir bo'lmoqda. Bu gallyutsinatsiyalarmi, dorilarning yon ta'sirimi yoki dunyo haqiqatan ham dahshat va dahshatga to'la?--Качество видео: BluRay 1080p x264
Формат видео: MKV--Видео: MPEG4 Video (H264) 1920x808 23.976fps 2 063 kb/s
Аудио: AAC 48000Hz stereo 132 kb/s O'zbek Tili--

MediaInfo

General
Format : Matroska
Format version : Version 4
File size : 1.88 GiB
Duration : 2 h 2 min
Overall bit rate : 2 197 kb/s
Encoded date : UTC 2020-08-11 19:50:04
Writing application : mkvmerge v15.0.0 ('Duel with the Devil') 64-bit
Writing library : libebml v1.3.5 + libmatroska v1.4.5
Video
ID : 1
Format : AVC
Format/Info : Advanced Video Codec
Format profile : High@L4.1
Format settings : CABAC / 4 Ref Frames
Format settings, CABAC : Yes
Format settings, Reference fra : 4 frames
Codec ID : V_MPEG4/ISO/AVC
Duration : 2 h 2 min
Bit rate : 2 063 kb/s
Width : 1 920 pixels
Height : 808 pixels
Display aspect ratio : 2.40:1
Frame rate mode : Constant
Frame rate : 23.976 (24000/1001) FPS
Original frame rate : 23.976 (23976/1000) FPS
Color space : YUV
Chroma subsampling : 4:2:0
Bit depth : 8 bits
Scan type : Progressive
Bits/(Pixel*Frame) : 0.055
Stream size : 1.76 GiB (94%)
Writing library : x264 core 142 r2409 d6b4e63
Default : Yes
Forced : No
Color range : Limited
Color primaries : BT.709
Matrix coefficients : BT.709
Audio
ID : 2
Format : AAC LC
Format/Info : Advanced Audio Codec Low Complexity
Codec ID : A_AAC-2
Duration : 2 h 2 min
Bit rate : 132 kb/s
Channel(s) : 2 channels
Channel layout : L R
Sampling rate : 48.0 kHz
Frame rate : 46.875 FPS (1024 SPF)
Compression mode : Lossy
Stream size : 115 MiB (6%)
Title : O'zbek Tili
Language : Uzbek
Default : Yes
Forced : Yes
Text
ID : 3
Format : UTF-8
Codec ID : S_TEXT/UTF8
Codec ID/Info : UTF-8 Plain Text
Duration : 1 h 20 min
Bit rate : 0 b/s
Count of elements : 3
Stream size : 159 Bytes (0%)
Language : Uzbek
Default : Yes
Forced : Yes
LAVHALAR

#Maksadjon_17

Не в сети

5497

Пол: Мужской

Стаж: 2 года 1 месяц

Сообщений: 28

Карма: 20

[+]

Провайдер: UzOnline UzOnline

Наличие запрета:



Награды: Нет

[Профиль] ЛС

Создавать темы 12-Авг-2020 09:48 (спустя 1 час)

Цитировать

N.U.R.I.K.B.E.K, Qoyil rahmat aka, Ozgina kech qolibman, bugun tayyor bo'lardi manda shu kino.

N.U.R.I.K.B.E.K ®

Не в сети

5417

Пол: Мужской

Стаж: 2 года 5 месяцев

Сообщений: 45

Откуда: Jizzax.Paxtakor

Карма: 111

[+]

Провайдер: UzOnline UzOnline

Наличие запрета:



Награды: Нет

[Профиль] ЛС

Создавать темы 12-Авг-2020 14:09 (спустя 4 часа)

Цитировать

#Maksadjon_17 писал(а):
3255N.U.R.I.K.B.E.K, Qoyil rahmat aka, Ozgina kech qolibman, bugun tayyor bo'lardi manda shu kino.
arzimaydi hechqisi yo ko'p audio yo'lakli qib boshqa farmatdami joylavering yuklab oluvchilar bo'ladi
Показать сообщения:    

Текущее время: 08-Дек 04:46

Часовой пояс: UTC - 5



Вы не можете начинать темы
Вы не можете отвечать на сообщения
Вы не можете редактировать свои сообщения
Вы не можете удалять свои сообщения
Вы не можете голосовать в опросах
Вы не можете прикреплять файлы к сообщениям
Вы не можете скачивать файлы