Регистрация ·
Имя: Пароль:  
· Забыли пароль? · Вопросы от гостей
Уважаемые гости сайта! Добро Пожаловать на наш торрент трекер,где Вы можете бесплатно скачать любой Софт,Фильмы,Музыку и многое другое! А так же постоянно ведется набор модераторов и релизеров. Зарегистрируйтесь сейчас, чтобы получить доступ ко всем функциям. После регистрации или входа на сайт вы сможете создавать темы, отвечать на сообщения и скачивать файлы.

Shelbilar oilasi (Otto Baferst, Tom Xarper) [2017, Buyuk Britaniya, Drama, jinoyat, H264, 1080p, WEB-DLMux, Sezon: 4 / Qismlar: 1-6] O'zbek + Ing + Italyan Tillarda by #Maksadjon_17

Статистика раздачи
Скачал: [ 1 ]
Сегодня идет свободное скачивание без начисления Download
 
     
 
 
Автор Сообщение

#Maksadjon_17 ®

Не в сети

5497

Пол: Мужской

Стаж: 2 года 9 месяцев

Сообщений: 28

Карма: 20

[+]

Провайдер: UzOnline UzOnline

Наличие запрета:



Награды: Нет

[Профиль] ЛС

Создавать темы 14-Авг-2020 07:08

Цитировать

Острые козырьки / Peaky Blinders / Shelbilar oilasi
-
Chiqqan yili: 2017
Davlat: Buyuk Britaniya
Janr: Drama, jinoyat
Davomiyligi: 00:58:12-Tarjima: English, iTunes Original
Tarjima 2: Uzbek, Professional dublyaj, Zo'rTV
Tarjima 3: Italian-Rejissyor: Otto Baferst, Tom Xarper-Rollarda: Killian Merfi, Sem Neal, Helen Makkrori, Annabelle Uollis, Iddo Goldberg, Pol Anderson, Sofi Rundle, Jo Koul, Charlie Creed Miles, Samuel Edward Cook,-Tavsif: "Sharp Visors" ning joyi va vaqti 1920 yillarning Birmingemidir. Qo'rqinchli lider Tomas (Killian Merfi) boshchiligidagi Shelbi oilasi qonuniy biznesni tashkil etish uchun kurashmoqda, ammo bitta narsa bor: bu oiladagi erkaklar hammasi ham bosqinchilarga o'xshaydi. Shaharda ular o'tkir pichoqlar har qanday tortishuvda oxirgi dalil sifatida foydalanish uchun zamonaviy qalpoqlari ostiga tikilganligi bilan mashhur bo'ldi. Barrikadaning boshqa tomonida tajribali politsiyachi, inspektor Chester Kempbell (Sem Nill) ning shaxsidagi qonun mavjud. U aqlli, ayyor va har qanday usul bilan qonunsizlikni yo'q qilishga qodir.
Stiven Naytning yangi gangster dramasi (Xummingbird effekti) zerikish uchun joy qoldirmaydi. Bosh qahramonlarning qahramonlari o'zlarining shon-sharaflarida favqulodda va ko'pincha tavakkal qiladigan xatti-harakatlari bilan namoyon bo'ladi, sevgi chizig'i yangi va g'ayrioddiy tarzda ajralib chiqadi va shouning musiqiy dizayni barcha musiqiy muxlislarni yoqimli ajablantiradi va quvontiradi. Tommining qiyofasi alohida e'tiborga loyiqdir. Hammasi qarama-qarshiliklardan to'qilgan: bir tomondan, shafqatsiz va shafqatsiz rahbar, boshqa tomondan - mehribon oila a'zosi va o'tmish xotiralaridan aziyat chekkan yarador askar. Murfi tomonidan ijro etilgan bu kombinatsiya juda ta'sirli ko'rinadi.- -Videoning sifati: H264 1080p BluRay
Formati: MKV
Video kodeki: AVC
Audio kodeki: AAC-Video: 1920 x 1080 (1.778) at 25.000 fps, 3 480 kbps
Audio: AC-3, 48000 Hz, 6.0 ch, 384 kbps
Audio 2: AAC, 48000 Hz, 2.0 ch, 196 kbps
Audio 3: AC-3, 48000 Hz, 2.0 ch, 192 kbps
Subtitrlar: English, Italian, Spanish

MediaInfo

General
Unique ID : 182127897582960665956647379832639793969 (0x89048EA273E47DFEAFF3891EF64F2B31)
Complete name : D:\Peaky Blinders Season 4\Peaky.Blinders.s04.e01.1080p.WEB-DLMux.x264.mkv
Format : Matroska
Format version : Version 4
File size : 1.73 GiB
Duration : 58 min 12 s
Overall bit rate mode : Variable
Overall bit rate : 4 244 kb/s
Encoded date : UTC 2020-08-14 10:58:33
Writing application : mkvmerge v38.0.0 ('The Silent Type') 64-bit
Writing library : libebml v1.3.9 + libmatroska v1.5.2
Video
ID : 1
Format : AVC
Format/Info : Advanced Video Codec
Format profile : Main@L4
Format settings : CABAC / 3 Ref Frames
Format settings, CABAC : Yes
Format settings, Reference frames : 3 frames
Codec ID : V_MPEG4/ISO/AVC
Duration : 58 min 12 s
Bit rate mode : Variable
Bit rate : 3 480 kb/s
Maximum bit rate : 5 220 kb/s
Width : 1 920 pixels
Height : 1 080 pixels
Display aspect ratio : 16:9
Frame rate mode : Constant
Frame rate : 25.000 FPS
Color space : YUV
Chroma subsampling : 4:2:0
Bit depth : 8 bits
Scan type : Progressive
Bits/(Pixel*Frame) : 0.067
Stream size : 1.41 GiB (82%)
Writing library : x264 core 148 r2714 2daf636
Encoding settings : cabac=1 / ref=3 / deblock=1:0:0 / analyse=0x1:0x111 / me=umh / subme=10 / psy=1 / psy_rd=1.00:0.00 / mixed_ref=1 / me_range=24 / chroma_me=1 / trellis=2 / 8x8dct=0 / cqm=0 / deadzone=21,11 / fast_pskip=1 / chroma_qp_offset=-2 / threads=8 / lookahead_threads=1 / sliced_threads=0 / nr=0 / decimate=1 / interlaced=0 / bluray_compat=0 / stitchable=1 / constrained_intra=0 / bframes=2 / b_pyramid=0 / b_adapt=2 / b_bias=0 / direct=3 / weightb=1 / open_gop=0 / weightp=2 / keyint=50 / keyint_min=26 / scenecut=0 / intra_refresh=0 / rc_lookahead=50 / rc=2pass / mbtree=1 / bitrate=3480 / ratetol=1.0 / qcomp=0.50 / qpmin=6 / qpmax=51 / qpstep=4 / cplxblur=20.0 / qblur=0.5 / vbv_maxrate=5220 / vbv_bufsize=6960 / nal_hrd=vbr / filler=0 / ip_ratio=1.40 / aq=1:1.00
Default : Yes
Forced : No
Audio #1
ID : 2
Format : AC-3
Format/Info : Audio Coding 3
Commercial name : Dolby Digital
Codec ID : A_AC3
Duration : 58 min 12 s
Bit rate mode : Constant
Bit rate : 192 kb/s
Channel(s) : 2 channels
Channel layout : L R
Sampling rate : 48.0 kHz
Frame rate : 31.250 FPS (1536 SPF)
Compression mode : Lossy
Stream size : 79.9 MiB (5%)
Title : ITA
Language : Italian
Service kind : Complete Main
Default : No
Forced : Yes
Audio #2
ID : 3
Format : AC-3
Format/Info : Audio Coding 3
Commercial name : Dolby Digital
Codec ID : A_AC3
Duration : 58 min 12 s
Bit rate mode : Constant
Bit rate : 384 kb/s
Channel(s) : 6 channels
Channel layout : L R C LFE Ls Rs
Sampling rate : 48.0 kHz
Frame rate : 31.250 FPS (1536 SPF)
Compression mode : Lossy
Stream size : 160 MiB (9%)
Title : ENG
Language : English
Service kind : Complete Main
Default : No
Forced : No
Audio #3
ID : 10
Format : AAC LC
Format/Info : Advanced Audio Codec Low Complexity
Codec ID : A_AAC-2
Duration : 58 min 12 s
Bit rate : 196 kb/s
Channel(s) : 2 channels
Channel layout : L R
Sampling rate : 48.0 kHz
Frame rate : 46.875 FPS (1024 SPF)
Compression mode : Lossy
Stream size : 81.6 MiB (5%)
Title : Uzbek
Language : Uzbek
Default : Yes
Forced : Yes
Text #1
ID : 4
Format : UTF-8
Codec ID : S_TEXT/UTF8
Codec ID/Info : UTF-8 Plain Text
Duration : 54 min 48 s
Bit rate : 0 b/s
Count of elements : 8
Stream size : 329 Bytes (0%)
Title : ITA - Forced
Language : Italian
Default : No
Forced : Yes
Text #2
ID : 5
Format : UTF-8
Codec ID : S_TEXT/UTF8
Codec ID/Info : UTF-8 Plain Text
Duration : 57 min 44 s
Bit rate : 55 b/s
Count of elements : 743
Stream size : 23.4 KiB (0%)
Language : Italian
Default : No
Forced : No
Text #3
ID : 6
Format : UTF-8
Codec ID : S_TEXT/UTF8
Codec ID/Info : UTF-8 Plain Text
Duration : 56 min 45 s
Bit rate : 54 b/s
Count of elements : 696
Stream size : 22.8 KiB (0%)
Language : English
Default : No
Forced : No
Text #4
ID : 7
Format : UTF-8
Codec ID : S_TEXT/UTF8
Codec ID/Info : UTF-8 Plain Text
Duration : 56 min 45 s
Bit rate : 56 b/s
Count of elements : 712
Stream size : 23.7 KiB (0%)
Title : SDH
Language : English
Default : No
Forced : No
Text #5
ID : 8
Format : UTF-8
Codec ID : S_TEXT/UTF8
Codec ID/Info : UTF-8 Plain Text
Duration : 2 s 560 ms
Bit rate : 87 b/s
Count of elements : 1
Stream size : 28.0 Bytes (0%)
Title : Forced
Language : English
Default : No
Forced : No
Text #6
ID : 9
Format : UTF-8
Codec ID : S_TEXT/UTF8
Codec ID/Info : UTF-8 Plain Text
Duration : 56 min 49 s
Bit rate : 56 b/s
Count of elements : 702
Stream size : 23.5 KiB (0%)
Language : Spanish
Default : No
Forced : No
Text #7
ID : 11
Format : UTF-8
Codec ID : S_TEXT/UTF8
Codec ID/Info : UTF-8 Plain Text
Duration : 15 s 0 ms
Bit rate : 22 b/s
Count of elements : 1
Stream size : 43.0 Bytes (0%)
Default : Yes
Forced : Yes
LAVHALAR


Последний раз редактировалось: #Maksadjon_17 (2020-08-14 07:57), всего редактировалось 1 раз

DimaUZB2001

Не в сети

5409

Пол: Мужской

Стаж: 3 года 1 месяц

Сообщений: 149

Карма: 101

[+]

Провайдер: TURON-Telecom 

Тарифный план: Скорость 10 (145000 сум, 0 Мб, 10M / 10M, 100M / 100M)

Telegram: UZTORPWUZ

Наличие запрета:



Награды: 2 (Подробнее)

Модератор (Количество: 1) Тех. Админ (Количество: 1)
[Профиль] ЛС

Создавать темы 14-Авг-2020 07:17 (спустя 9 минут)

Цитировать

помогу раздаче

_________________
MSI B450 TOMAHAWK MAX II / AMD RYZEN 5 3600 / RAM 16GB DDR4 2666Мгц / GTX 1060 6GB / M.2 NVME 250GB / SSD 240GB / HDD 2TB / Блок Питание 1250W

N.U.R.I.K.B.E.K

Не в сети

5417

Пол: Мужской

Стаж: 3 года 1 месяц

Сообщений: 45

Откуда: Jizzax.Paxtakor

Карма: 111

[+]

Провайдер: UzOnline UzOnline

Наличие запрета:



Награды: Нет

[Профиль] ЛС

Создавать темы 14-Авг-2020 07:28 (спустя 10 минут)

Цитировать

#Maksadjon_17, mwdiainfo malumoti bunaqa bo'maydi

#Maksadjon_17 ®

Не в сети

5497

Пол: Мужской

Стаж: 2 года 9 месяцев

Сообщений: 28

Карма: 20

[+]

Провайдер: UzOnline UzOnline

Наличие запрета:



Награды: Нет

[Профиль] ЛС

Создавать темы 14-Авг-2020 07:55 (спустя 27 минут)

Цитировать

New-Software, razdayu

#Maksadjon_17 ®

Не в сети

5497

Пол: Мужской

Стаж: 2 года 9 месяцев

Сообщений: 28

Карма: 20

[+]

Провайдер: UzOnline UzOnline

Наличие запрета:



Награды: Нет

[Профиль] ЛС

Создавать темы 14-Авг-2020 07:59 (спустя 4 минуты)

Цитировать

N.U.R.I.K.B.E.K, to'g'rilab qo'ydim, ko'ringchi

Dosi

Не в сети

5468

Пол: Мужской

Стаж: 2 года 11 месяцев

Сообщений: 12

Карма: 15

[+]

Провайдер: UzOnline UzOnline

Тарифный план: YANGI 1

Наличие запрета:



Награды: Нет

[Профиль] ЛС

Создавать темы 15-Авг-2020 07:19 (спустя 23 часа)

Цитировать

e qoyil raxmat Maksadjon_17, keyingi sezonni ham kutib qolamiz

#Maksadjon_17 ®

Не в сети

5497

Пол: Мужской

Стаж: 2 года 9 месяцев

Сообщений: 28

Карма: 20

[+]

Провайдер: UzOnline UzOnline

Наличие запрета:



Награды: Нет

[Профиль] ЛС

Создавать темы 15-Авг-2020 21:03 (спустя 13 часов)

Цитировать

Dosi, Arzimaydi, tez orada u ham tayyor bo'ladi
Показать сообщения:    

Текущее время: 15-Авг 14:46

Часовой пояс: UTC - 5



Вы не можете начинать темы
Вы не можете отвечать на сообщения
Вы не можете редактировать свои сообщения
Вы не можете удалять свои сообщения
Вы не можете голосовать в опросах
Вы не можете прикреплять файлы к сообщениям
Вы не можете скачивать файлы