Регистрация ·
Имя: Пароль:  
· Забыли пароль? · Вопросы от гостей
Круиз по джунглям
Pazl Voice
WEB-DLRip-AVC
Папа Закодировался
Не требуется
WEB-DLRip
Маша
Не требуется
WEBRip
Прячься
iTunes
WEB-DL 1080p
The Ascent
RePack
Action, RPG
Форсаж 9
Чистый звук
WEB-DL 720p
Форсаж 9
Чистый звук
WEB-DLRip
Форсаж 9
Pazl Voice
WEB-DL 1080p
Папа за маму
iTunes
WEB-DLRip
Windows 7/10
Microsoft
7.7.2021
Убойные каникулы
Кураж-Бамбей
BDRip 720p
Уважаемые гости сайта! Добро Пожаловать на наш торрент трекер,где Вы можете бесплатно скачать любой Софт,Фильмы,Музыку и многое другое! А так же постоянно ведется набор модераторов и релизеров. Зарегистрируйтесь сейчас, чтобы получить доступ ко всем функциям. После регистрации или входа на сайт вы сможете создавать темы, отвечать на сообщения и скачивать файлы.

До нового года осталось

Yason va Argonaftlar / Яcон и Аргонавты | Jason and the Argonauts (Ник Уиллинг / Nick Willing) [2000, Drama, Sarguzasht, Doston, DVDRip x264] O'zbek + Rus + Ing Tillarda 1-Qism

Статистика раздачи
Нет
Сегодня идет свободное скачивание без начисления Download
 
     
 
 
Автор Сообщение

N.U.R.I.K.B.E.K ®

Не в сети

5417

Пол: Мужской

Стаж: 2 года 5 месяцев

Сообщений: 45

Откуда: Jizzax.Paxtakor

Карма: 111

[+]

Провайдер: UzOnline UzOnline

Наличие запрета:



Награды: Нет

[Профиль] ЛС

Создавать темы 16-Авг-2020 02:12

Цитировать

-Yason va Argonaftlar | Яcон и Аргонавты | Jason and the Argonauts
-Год выпуска: 2000
Страна: AQSH
Жанр: Drama, Sarguzasht, Doston
Продолжительность: 01:29:27
Перевод: Профессиональный Yoshlar O'zbek Tilida
Перевод: Профессиональный DVO Rus Tilida
Перевод: Профессиональный Оригинал Ing Tilida--Режиссер: Ник Уиллинг / Nick Willing.--В ролях: Jeyson London, Frank Langella, Natasha Xenstridj, Derek Jeykobi, Oliviya Uilyams, Angus MakFadien, Dennis Xopper, Yolen Blalok, Brayan Tompson, Adrian Lester--Описание: Jiyani Jeysondan abadiy qutulishni o'ylab, zolim Pelius unga uzoq Kolxisga borishni va u erdan shafqatsiz va xiyonatkor shoh Aertga tegishli bo'lgan bebaho oltin parchani olib kelishni buyurdi. Dunyodagi eng tezkor kemani qurib, Jeyson adventistlar jamoasi boshida misli ko'rilmagan sayohatga yo'l oldi va hech kim qaytib kelmagan joyga yo'l oldi. Ko'p sonli to'siqlarni engib o'tish, dahshatli yirtqich hayvonlar va chiroyli, ammo qahrli Amazonlar bilan kurashish, Jeyson va uning o'rtoqlari qaysarlik bilan maqsad sari yo'l olishadi. Va hatto Zevs xudolarining shohi ham jasur qahramonlarning oldini olishga qodir emas ...--Качество видео: DVDRip x264
Формат видео: MKV--Видео: MPEG4 Video (H264) 712x480 (4:3) 23.976fps 2 500 Kbps
Аудио: AAC 48000Hz stereo O'zbek Tili
Аудио: Dolby AC3 48000Hz 6ch 448kbps Rus Tili
Аудио: Dolby AC3 48000Hz stereo 192kbps Ing Tili-Cубтитры: русские--

MediaInfo

General
Format : Matroska
Format version : Version 4 / Version 2
File size : 2.04 GiB
Duration : 1h 29mn
Overall bit rate : 3 271 Kbps
Movie name : Jason and the Argonauts.part 1.2000.DVDRip.x264.mkv [by pan29]
Encoded date : UTC 2020-08-16 06:31:52
Writing application : mkvmerge v15.0.0 ('Duel with the Devil') 64-bit
Writing library : libebml v1.3.5 + libmatroska v1.4.5
DURATION : 01:20:15.000000000
NUMBER_OF_FRAMES : 3
NUMBER_OF_BYTES : 159
Video
ID : 1
Format : AVC
Format/Info : Advanced Video Codec
Format profile : High@L4.1
Format settings, CABAC : Yes
Format settings, ReFrames : 11 frames
Codec ID : V_MPEG4/ISO/AVC
Duration : 1h 29mn
Nominal bit rate : 2 500 Kbps
Width : 712 pixels
Height : 480 pixels
Display aspect ratio : 4:3
Frame rate mode : Constant
Frame rate : 23.976 fps
Color space : YUV
Chroma subsampling : 4:2:0
Bit depth : 8 bits
Scan type : Progressive
Bits/(Pixel*Frame) : 0.305
Title : Jason and the Argonauts.part 1.2000
Language : English
Default : No
Forced : No
Audio #1
ID : 2
Format : AAC
Format/Info : Advanced Audio Codec
Format profile : LC
Codec ID : A_AAC
Duration : 1h 29mn
Channel(s) : 2 channels
Channel positions : Front: L R
Sampling rate : 48.0 KHz
Compression mode : Lossy
Title : O'zbek Tili
Language : Uzbek
Default : Yes
Forced : Yes
Audio #2
ID : 3
Format : AC-3
Format/Info : Audio Coding 3
Mode extension : CM (complete main)
Format settings, Endianness : Big
Codec ID : A_AC3
Duration : 1h 29mn
Bit rate mode : Constant
Bit rate : 448 Kbps
Channel(s) : 6 channels
Channel positions : Front: L C R, Side: L R, LFE
Sampling rate : 48.0 KHz
Compression mode : Lossy
Stream size : 287 MiB (14%)
Title : Rus Tili
Language : Russian
Default : No
Forced : Yes
Audio #3
ID : 4
Format : AC-3
Format/Info : Audio Coding 3
Mode extension : CM (complete main)
Format settings, Endianness : Big
Codec ID : A_AC3
Duration : 1h 29mn
Bit rate mode : Constant
Bit rate : 192 Kbps
Channel(s) : 2 channels
Channel positions : Front: L R
Sampling rate : 48.0 KHz
Compression mode : Lossy
Stream size : 123 MiB (6%)
Title : Ing Tili
Language : English
Default : No
Forced : Yes
Text #1
ID : 5
Format : UTF-8
Codec ID : S_TEXT/UTF8
Codec ID/Info : UTF-8 Plain Text
Language : Russian
Default : No
Forced : No
Text #2
ID : 6
Format : UTF-8
Codec ID : S_TEXT/UTF8
Codec ID/Info : UTF-8 Plain Text
Language : Uzbek
Default : Yes
Forced : Yes
LAVHALAR


Последний раз редактировалось: N.U.R.I.K.B.E.K (2020-08-18 05:44), всего редактировалось 1 раз

N.U.R.I.K.B.E.K ®

Не в сети

5417

Пол: Мужской

Стаж: 2 года 5 месяцев

Сообщений: 45

Откуда: Jizzax.Paxtakor

Карма: 111

[+]

Провайдер: UzOnline UzOnline

Наличие запрета:



Награды: Нет

[Профиль] ЛС

Создавать темы 16-Авг-2020 02:42 (спустя 30 минут)

Цитировать

Tez orada 2chi qismini ham joylaberaman
Показать сообщения:    

Текущее время: 08-Дек 03:59

Часовой пояс: UTC - 5



Вы не можете начинать темы
Вы не можете отвечать на сообщения
Вы не можете редактировать свои сообщения
Вы не можете удалять свои сообщения
Вы не можете голосовать в опросах
Вы не можете прикреплять файлы к сообщениям
Вы не можете скачивать файлы