Регистрация ·
Имя: Пароль:  
· Забыли пароль? · Вопросы от гостей
Kliplar To'plami
O'zbek Tilida
Rizanova
12 Round
O'zbek Tilida
BluRay 1080p
Qo'riqchi ayol
O'zbek Tilida
BluRay 1080p
SHAFT
O'zbek Tilida
BDRip
SHAFT
O'zbek Tilida
WEBRip 1080p
Javohir politsiyachi
O'zbek Tilida
BDRip-AVC
So'nggi Ritsarlar
O'zbek Tilida
BluRay 1080p
Агент Ева
O'zbek Tilida
WEB-Rip
Анна
iTunes
BDRip 1080p
Анна
iTunes
BDRip-AVC
Анна
iTunes
BDRip
Mulan
O'zbek Tilida
WEBRip 1080p HEVC x265
Мулан
IdeaFilm
WEB-DL 720p
Мулан
IdeaFilm
WEB-DL 1080p
Мулан
IdeaFilm
WEB-DL 2160p
Temir Odam Uchligi
O'zbek Tilida
BluRay, 1080p, HEVC, x265, 10bit
Kliplar To'plami
O'zbek Tilida
Rizanova
Singularity
Repack
Mechanics
Tom Raider
Repack
Xatab
Far Cry New Dawn
Repack
Xatab
Far Cry 3
Repack
Xatab
Фитнес
Россия
WEB-DL 720p
Resident Evil
Гексалогия
Repack
Godzilla 2; Mahluqlar Qiroli
O'zbek Tilida
WEBRip HEVC 720p
Olimpning Qulashi
O'zbek Tilida
BDRip
X-Odamlar Qora Qaqnus
O'zbek Tilida
BDRip 1080p
Sevishganlar
O'zbek Tilida
HDRip
Maymunlar Sayyorasi Uchlik
O'zbek Tilida
BDRip
Koko Siri
O'zbek Tilida
BDRip-AVC
Спартак
РенТВ
BDRip 720p
Shelbilar oilasi
O'zbek Tilida
x265 1080p WEBRip 10bit
Однажды на востоке
Лицензия
BDRip 1080p
Yason va Argonaftlar
O'zbek Tilida
DVDRip x264
Shelbilar oilasi
O'zbek Tilida
BluRay 1080p x264
Qotillik Uchun Uch Kun
O'zbek Tilida
BluRay 1080p x264
Ko'd 211
O'zbek + Rus + Ing
BluRay 1080p
Интрижка
iTunes
WEB-DLRip
WarFace
Лицензия
Русский
Хоббит / Властелин колец
Коллекция
BDRip 1080p H264
SamDrivers
x32/x64
Repack
Чудесный доктор
WEB-DL 1080p
Турция
Острые козырьки
H265 1080p BluRay
Uzb+Ing
S.T.A.L.K.E.R
Анталогия
Repack
Зов джунглей
Рус
WEB-DL 1080p
Ajal Poygasi
Uzb Rus Ing
BrRip 1080p H264
Yengilmas Gvardiya
O'zbek Tilida
WEB-DL 1080p H264
Suv va Olov
O'zbek Tilida
BDRip H264
S.T.A.L.K.E.R.
Анталогия Модов
GSC Game World
GTA 5
RePack
Лицензия
Tunnel: Hayot uchun xavfli
Uzb Tilida
WEB-DL 1080p

До нового года осталось

Уважаемые гости сайта! Добро Пожаловать на наш торрент трекер,где Вы можете бесплатно скачать любой Софт,Фильмы,Музыку и многое другое! А так же постоянно ведется набор модераторов и релизеров. Зарегистрируйтесь сейчас, чтобы получить доступ ко всем функциям. После регистрации или входа на сайт вы сможете создавать темы, отвечать на сообщения и скачивать файлы.

Спартак / Spartacus (Антология) Все Сезоны! Страна: США / Жанр: Биография, Боевик, Драма, Зарубежный сериал, Исторический, Приключения / Продолжительность: 13x ~ 00:55:00 / Перевод:Профессиональный (дублированный) | РенТВ

Статистика раздачи
Качаю: [ 2 ]
Скачал: [ 1 ]
Сегодня идет свободное скачивание без начисления Download
 
     
 
 
Автор Сообщение

Robinzon1986 ®

Не в сети

5779

Пол: Мужской

Стаж: 5 месяцев

Сообщений: 52

Откуда: Узбекистан, Ташкент

Карма: 105

[+]

Провайдер: UzOnline UzOnline

Тарифный план: Unlim-6

Telegram: System_Dowloand

Наличие запрета:



Награды: 1 (Подробнее)

S.T.A.L.K.E.R (Количество: 1)
[Профиль] ЛС

Создавать темы 23-Авг-2020 04:57

Цитировать

Livetor.uz Бесплатный торрент трекер в Узбекистане

Спартак / Spartacus (Антология) Все Сезоны!- -Страна: США
Жанр: Биография, Боевик, Драма, Зарубежный сериал, Исторический, Приключения
Год выпуска: Дата выхода в России (или в Мире): 22.01.2010
Продолжительность: 13x ~ 00:55:00
Перевод: Профессиональный (дублированный) | РенТВ
Компания: Starz Media, Starz Productions
Канал: Anchor Bay Entertainment, Starz! Network
Режиссеры: Джесси Уарн, Майкл Херст, Рик Джейкобсон- -Энди Уитфилд, Лиам МакИнтайр, Ману Беннетт, Райчо Василев, Лесли-Энн Брандт, Джай Кортни, Дэвид Остин, Эйка Дарвилл, Энди Каннингэм, Джанин Бурчетт, Катрина Ло, Джон Бах, Вива Скубижевски, Эрин Каммингс, Крэйг Паркер, Люси Лоулесс, Антонио Те Майохо, Ник Тарабей, Питер Менса, Джон Ханна-Продюсеры: Хлоя Смит, Чарльз Найт, Аарон Лам- -Предан своей страной. Отдан в рабство. Перерожден воином. Spartacus : Blood and Sand – это жесткий и выразительный рассказ о самом знаменитом из римских гладиаторов. Спартака разлучили с любовью всей его жизни и заставили выходить на арену, где смерть – лучшее развлечение для толпы. Спартак должен бороться за выживание, подружиться с врагами, и усвоить политику нового мира жестокости, секса и славы. Его будут соблазнять властью и изводить местью. Но его страсть даст ему силы преодолеть все испытания в этой истории о смерти, чести и стойкости.
-Сериал содержит сцены насилия и драматизм характера, не рекомендуется к просмотру лицам до 18 лет-
Качество видео: BDRip (1280x720)
Формат видео: MKV
Видео: Описание в MediaInfo
Аудио:
Описание в MediaInfo-Порядок Просмотра: Предыстория: Спартак: Боги арены
Сезон 1 «Спартак: Кровь и песок» (2010)
«Спартак: Боги арены» (2011) - приквел к 1-му сезону "Кровь и Песок"
Сезон 2 «Спартак: Месть» (2012)
Сезон 3 «Спартак: Война проклятых» (2013)
-«Кровь и песок» - является завязкой всех событий, которые рассказывают нам уроки истории
«Боги арены» - нить, связывающая первый и второй сезон сериала.
«Месть» - продолжение нашумевшей драмы о самом масштабном восстании рабов
«Война проклятых» - заключительный сезон великолепной саги, наполненной высоким смыслом.
-

MediaInfo

Общее
Уникальный идентификатор : 176019267845811279746076411271719084880 (0x846C13EF81C99F58A255FFB6906EE350)
Полное имя : E:\Торрент Раздачалар!\Сериал Спартак (1-2-3 Сезоны+Боги Арены) Full (HD) (Rus)\Сезон 1 «Спартак Кровь и песок» . «Spartacus Blood and Sand» (2010)\Spartacus.Blood.and.Sand.(1.sezon.01.seriya.iz.13).2010.x264.BDRip.720p.mkv
Формат : Matroska
Версия формата : Version 1
Размер файла : 2,62 Гбайт
Продолжительность : 54 м. 56 с.
Общий поток : 6837 Кбит/сек
Дата кодирования : UTC 2011-04-27 04:28:29
Программа кодирования : mkvmerge v2.3.0 ('Freak U') built on Sep 8 2008 18:32:16
Библиотека кодирования : libebml v0.7.7 + libmatroska v0.8.1
Видео
Идентификатор : 1
Формат : AVC
Формат/Информация : Advanced Video Codec
Профиль формата : High@L4.1
Настройки формата : CABAC / 9 Ref Frames
Параметр CABAC формата : Да
Параметр RefFrames формата : 9 кадров
Идентификатор кодека : V_MPEG4/ISO/AVC
Продолжительность : 54 м. 56 с.
Битрейт : 6000 Кбит/сек
Ширина : 1280 пикселей
Высота : 720 пикселей
Соотношение сторон : 16:9
Режим частоты кадров : Постоянный
Частота кадров : 23,976 (24000/1001) кадра/сек
Цветовое пространство : YUV
Субдискретизация насыщенности : 4:2:0
Битовая глубина : 8 бит
Тип развёртки : Прогрессивная
Бит/(Пиксели*Кадры) : 0.272
Размер потока : 2,25 Гбайт (86%)
Заголовок : 6000 kbpsd
Библиотека кодирования : x264 core 98 r1629 2e81ce1
Настройки программы : cabac=1 / ref=9 / deblock=1:-3:-3 / analyse=0x3:0x133 / me=umh / subme=10 / psy=1 / psy_rd=0.80:0.00 / mixed_ref=1 / me_range=48 / chroma_me=1 / trellis=2 / 8x8dct=1 / cqm=0 / deadzone=21,11 / fast_pskip=0 / chroma_qp_offset=-2 / threads=12 / sliced_threads=0 / nr=0 / decimate=0 / interlaced=0 / constrained_intra=0 / bframes=6 / b_pyramid=2 / b_adapt=2 / b_bias=0 / direct=3 / weightb=1 / weightp=2 / keyint=250 / keyint_min=25 / scenecut=40 / intra_refresh=0 / rc_lookahead=40 / rc=2pass / mbtree=1 / bitrate=6000 / ratetol=1.0 / qcomp=0.60 / qpmin=10 / qpmax=51 / qpstep=4 / cplxblur=20.0 / qblur=0.5 / ip_ratio=1.40 / aq=1:0.80
Язык : English
Default : Да
Forced : Нет
Аудио #1
Идентификатор : 2
Формат : AC-3
Формат/Информация : Audio Coding 3
Коммерческое название : Dolby Digital
Идентификатор кодека : A_AC3
Продолжительность : 54 м. 56 с.
Вид битрейта : Постоянный
Битрейт : 192 Кбит/сек
Каналы : 2 канала
ChannelLayout : L R
Частота : 48,0 КГц
Частота кадров : 31,250 кадров/сек (1536 SPF)
Метод сжатия : С потерями
Размер потока : 75,4 Мбайт (3%)
Заголовок : RenTV
Язык : Russian
ServiceKind/String : Complete Main
Default : Да
Forced : Нет
Аудио #2
Идентификатор : 3
Формат : AC-3
Формат/Информация : Audio Coding 3
Коммерческое название : Dolby Digital
Идентификатор кодека : A_AC3
Продолжительность : 54 м. 56 с.
Вид битрейта : Постоянный
Битрейт : 640 Кбит/сек
Каналы : 6 каналов
ChannelLayout : L R C LFE Ls Rs
Частота : 48,0 КГц
Частота кадров : 31,250 кадров/сек (1536 SPF)
Метод сжатия : С потерями
Размер потока : 251 Мбайт (9%)
Заголовок : Main Audio
Язык : English
ServiceKind/String : Complete Main
Default : Нет
Forced : Нет

Скриншоты

Скриншоты из филма--Отделные Скриншоты-


Последний раз редактировалось: Robinzon1986 (2020-08-23 07:28), всего редактировалось 8 раз(а)

serkar

Не в сети

5639

Пол: Мужской

Стаж: 7 месяцев 20 дней

Сообщений: 4

Карма: 0

[+]

Провайдер: TURON-Telecom 

Наличие запрета:



Награды: Нет

[Профиль] ЛС

Создавать темы 07-Сен-2020 23:48 (спустя 15 дней)

Цитировать

.........
Показать сообщения:    

Текущее время: 01-Дек 19:41

Часовой пояс: UTC - 5



Вы не можете начинать темы
Вы не можете отвечать на сообщения
Вы не можете редактировать свои сообщения
Вы не можете удалять свои сообщения
Вы не можете голосовать в опросах
Вы не можете прикреплять файлы к сообщениям
Вы не можете скачивать файлы