Регистрация ·
Имя: Пароль:  
· Забыли пароль? · Вопросы от гостей
Kliplar To'plami
O'zbek Tilida
Rizanova
12 Round
O'zbek Tilida
BluRay 1080p
Qo'riqchi ayol
O'zbek Tilida
BluRay 1080p
SHAFT
O'zbek Tilida
BDRip
SHAFT
O'zbek Tilida
WEBRip 1080p
Javohir politsiyachi
O'zbek Tilida
BDRip-AVC
So'nggi Ritsarlar
O'zbek Tilida
BluRay 1080p
Агент Ева
O'zbek Tilida
WEB-Rip
Анна
iTunes
BDRip 1080p
Анна
iTunes
BDRip-AVC
Анна
iTunes
BDRip
Mulan
O'zbek Tilida
WEBRip 1080p HEVC x265
Мулан
IdeaFilm
WEB-DL 720p
Мулан
IdeaFilm
WEB-DL 1080p
Мулан
IdeaFilm
WEB-DL 2160p
Temir Odam Uchligi
O'zbek Tilida
BluRay, 1080p, HEVC, x265, 10bit
Kliplar To'plami
O'zbek Tilida
Rizanova
Singularity
Repack
Mechanics
Tom Raider
Repack
Xatab
Far Cry New Dawn
Repack
Xatab
Far Cry 3
Repack
Xatab
Фитнес
Россия
WEB-DL 720p
Resident Evil
Гексалогия
Repack
Godzilla 2; Mahluqlar Qiroli
O'zbek Tilida
WEBRip HEVC 720p
Olimpning Qulashi
O'zbek Tilida
BDRip
X-Odamlar Qora Qaqnus
O'zbek Tilida
BDRip 1080p
Sevishganlar
O'zbek Tilida
HDRip
Maymunlar Sayyorasi Uchlik
O'zbek Tilida
BDRip
Koko Siri
O'zbek Tilida
BDRip-AVC
Спартак
РенТВ
BDRip 720p
Shelbilar oilasi
O'zbek Tilida
x265 1080p WEBRip 10bit
Однажды на востоке
Лицензия
BDRip 1080p
Yason va Argonaftlar
O'zbek Tilida
DVDRip x264
Shelbilar oilasi
O'zbek Tilida
BluRay 1080p x264
Qotillik Uchun Uch Kun
O'zbek Tilida
BluRay 1080p x264
Ko'd 211
O'zbek + Rus + Ing
BluRay 1080p
Интрижка
iTunes
WEB-DLRip
WarFace
Лицензия
Русский
Хоббит / Властелин колец
Коллекция
BDRip 1080p H264
SamDrivers
x32/x64
Repack
Чудесный доктор
WEB-DL 1080p
Турция
Острые козырьки
H265 1080p BluRay
Uzb+Ing
S.T.A.L.K.E.R
Анталогия
Repack
Зов джунглей
Рус
WEB-DL 1080p
Ajal Poygasi
Uzb Rus Ing
BrRip 1080p H264
Yengilmas Gvardiya
O'zbek Tilida
WEB-DL 1080p H264
Suv va Olov
O'zbek Tilida
BDRip H264
S.T.A.L.K.E.R.
Анталогия Модов
GSC Game World
GTA 5
RePack
Лицензия
Tunnel: Hayot uchun xavfli
Uzb Tilida
WEB-DL 1080p

До нового года осталось

Уважаемые гости сайта! Добро Пожаловать на наш торрент трекер,где Вы можете бесплатно скачать любой Софт,Фильмы,Музыку и многое другое! А так же постоянно ведется набор модераторов и релизеров. Зарегистрируйтесь сейчас, чтобы получить доступ ко всем функциям. После регистрации или входа на сайт вы сможете создавать темы, отвечать на сообщения и скачивать файлы.

Shelbilar oilasi (Otto Baferst, Tom Xarper) [2017, Buyuk Britaniya, Drama, jinoyat, x265, 1080p, WEBRip 10bit, Sezon: 5 / Qismlar: 1-6] O'zbek + Ingliz tillarda by #Maksadjon_17

Статистика раздачи
Качаю: [ 1 ]
Скачал: [ 8 ]
Сегодня идет свободное скачивание без начисления Download
 
     
 
 
Автор Сообщение

#Maksadjon_17 ®

Не в сети

5497

Пол: Мужской

Стаж: 1 год 1 месяц

Сообщений: 28

Карма: 20

[+]

Провайдер: UzOnline UzOnline

Наличие запрета:



Награды: Нет

[Профиль] ЛС

Создавать темы 23-Авг-2020 07:00

Цитировать

Острые козырьки / Peaky Blinders / Shelbilar oilasi
-
Chiqqan yili: 2017
Davlat: Buyuk Britaniya
Janr: Drama, jinoyat
Davomiyligi: 00:56:20-Tarjima: English, iTunes Original
Tarjima 2: Uzbek, Professional dublyaj, Zo'rTV-Rejissyor: Otto Baferst, Tom Xarper-Rollarda: Killian Merfi, Sem Neal, Helen Makkrori, Annabelle Uollis, Iddo Goldberg, Pol Anderson, Sofi Rundle, Jo Koul, Charlie Creed Miles, Samuel Edward Cook,-Tavsif: "Sharp Visors" ning joyi va vaqti 1920 yillarning Birmingemidir. Qo'rqinchli lider Tomas (Killian Merfi) boshchiligidagi Shelbi oilasi qonuniy biznesni tashkil etish uchun kurashmoqda, ammo bitta narsa bor: bu oiladagi erkaklar hammasi ham bosqinchilarga o'xshaydi. Shaharda ular o'tkir pichoqlar har qanday tortishuvda oxirgi dalil sifatida foydalanish uchun zamonaviy qalpoqlari ostiga tikilganligi bilan mashhur bo'ldi. Barrikadaning boshqa tomonida tajribali politsiyachi, inspektor Chester Kempbell (Sem Nill) ning shaxsidagi qonun mavjud. U aqlli, ayyor va har qanday usul bilan qonunsizlikni yo'q qilishga qodir.
Stiven Naytning yangi gangster dramasi (Xummingbird effekti) zerikish uchun joy qoldirmaydi. Bosh qahramonlarning qahramonlari o'zlarining shon-sharaflarida favqulodda va ko'pincha tavakkal qiladigan xatti-harakatlari bilan namoyon bo'ladi, sevgi chizig'i yangi va g'ayrioddiy tarzda ajralib chiqadi va shouning musiqiy dizayni barcha musiqiy muxlislarni yoqimli ajablantiradi va quvontiradi. Tommining qiyofasi alohida e'tiborga loyiqdir. Hammasi qarama-qarshiliklardan to'qilgan: bir tomondan, shafqatsiz va shafqatsiz rahbar, boshqa tomondan - mehribon oila a'zosi va o'tmish xotiralaridan aziyat chekkan yarador askar. Murfi tomonidan ijro etilgan bu kombinatsiya juda ta'sirli ko'rinadi.- -Videoning sifati: x265 1080p WEBRip 10bit
Formati: MKV
Video kodeki: HEVC
Audio kodeki: AAC-Video: 1920 x 960 (2.000), 25.000 fps, 1201 kbps
Audio: AAC, 48000 Hz, 6.0 ch, 178 kbps
Audio 2: AAC, 48000 Hz, 2.0 ch, 128 kbps
Subtitrlar: English, Spanish

MediaInfo

General
Unique ID : 5377490383682177012331185935793464092 (0x40BAABEE9043D2EFA78ADABE0E3231C)
Complete name : D:\Peaky Blinders Season 5\Peaky Blinders S05E01 Black Tuesday 1080p x265 10bit by #Maksadjon_17.mkv
Format : Matroska
Format version : Version 4
File size : 607 MiB
Duration : 56 min 20 s
Overall bit rate : 1 507 kb/s
Encoded date : UTC 2020-08-23 11:28:58
Writing application : mkvmerge v38.0.0 ('The Silent Type') 64-bit
Writing library : libebml v1.3.9 + libmatroska v1.5.2
Writing frontend : StaxRip v2.0.2.0
Video
ID : 1
Format : HEVC
Format/Info : High Efficiency Video Coding
Format profile : Main 10@L4@Main
Codec ID : V_MPEGH/ISO/HEVC
Duration : 56 min 20 s
Bit rate : 1 201 kb/s
Width : 1 920 pixels
Height : 960 pixels
Display aspect ratio : 2.000
Frame rate mode : Constant
Frame rate : 25.000 FPS
Color space : YUV
Chroma subsampling : 4:2:0
Bit depth : 10 bits
Bits/(Pixel*Frame) : 0.026
Stream size : 484 MiB (80%)
Writing library : x265 3.2+9-971180b100f8:[Windows][MSVC 1923][64 bit] 10bit
Encoding settings : cpuid=1111039 / frame-threads=3 / numa-pools=12 / wpp / no-pmode / no-pme / no-psnr / ssim / log-level=2 / input-csp=1 / input-res=1920x960 / interlace=0 / total-frames=84509 / level-idc=0 / high-tier=1 / uhd-bd=0 / ref=4 / no-allow-non-conformance / no-repeat-headers / annexb / no-aud / no-hrd / info / hash=0 / no-temporal-layers / open-gop / min-keyint=25 / keyint=250 / gop-lookahead=0 / bframes=8 / b-adapt=2 / b-pyramid / bframe-bias=40 / rc-lookahead=80 / lookahead-slices=4 / scenecut=40 / radl=0 / no-splice / no-intra-refresh / ctu=64 / min-cu-size=8 / rect / no-amp / max-tu-size=32 / tu-inter-depth=1 / tu-intra-depth=1 / limit-tu=0 / rdoq-level=2 / dynamic-rd=0.00 / ssim-rd / signhide / no-tskip / nr-intra=0 / nr-inter=0 / constrained-intra / strong-intra-smoothing / max-merge=5 / limit-refs=3 / limit-modes / me=3 / subme=7 / merange=57 / temporal-mvp / no-frame-dup / no-hme / weightp / no-weightb / no-analyze-src-pics / deblock=0:0 / sao / no-sao-non-deblock / rd=4 / selective-sao=4 / early-skip / rskip / no-fast-intra / no-tskip-fast / no-cu-lossless / no-b-intra / splitrd-skip / rdpenalty=0 / psy-rd=2.50 / psy-rdoq=1.50 / no-rd-refine / no-lossless / cbqpoffs=0 / crqpoffs=0 / rc=abr / bitrate=1200 / qcomp=0.60 / qpstep=4 / stats-write=0 / stats-read=2 / cplxblur=20.0 / qblur=0.5 / ipratio=1.40 / pbratio=1.30 / aq-mode=3 / aq-strength=0.40 / cutree / zone-count=0 / no-strict-cbr / qg-size=32 / no-rc-grain / qpmax=69 / qpmin=0 / no-const-vbv / sar=0 / overscan=0 / videoformat=5 / range=0 / colorprim=2 / transfer=2 / colormatrix=1 / chromaloc=0 / display-window=0 / cll=0,0 / min-luma=0 / max-luma=1023 / log2-max-poc-lsb=8 / vui-timing-info / vui-hrd-info / slices=1 / no-opt-qp-pps / no-opt-ref-list-length-pps / multi-pass-opt-rps / scenecut-bias=0.05 / no-opt-cu-delta-qp / no-aq-motion / no-hdr / no-hdr-opt / no-dhdr10-opt / no-idr-recovery-sei / analysis-reuse-level=10 / scale-factor=0 / refine-intra=0 / refine-inter=0 / refine-mv=1 / refine-ctu-distortion=0 / limit-sao / ctu-info=0 / no-lowpass-dct / refine-analysis-type=0 / copy-pic=1 / max-ausize-factor=1.0 / no-dynamic-refine / no-single-sei / no-hevc-aq / no-svt / no-field / qp-adaptation-range=1.00
Default : Yes
Forced : No
Color range : Limited
Matrix coefficients : BT.709
Audio #1
ID : 2
Format : AAC LC SBR
Format/Info : Advanced Audio Codec Low Complexity with Spectral Band Replication
Commercial name : HE-AAC
Format settings : Explicit
Codec ID : A_AAC-2
Duration : 56 min 20 s
Bit rate : 178 kb/s
Channel(s) : 6 channels
Channel layout : C L R Ls Rs LFE
Sampling rate : 48.0 kHz
Frame rate : 23.438 FPS (2048 SPF)
Compression mode : Lossy
Delay relative to video : 31 ms
Stream size : 71.6 MiB (12%)
Title : English
Language : English
Default : No
Forced : No
Audio #2
ID : 6
Format : AAC LC
Format/Info : Advanced Audio Codec Low Complexity
Codec ID : A_AAC-2
Duration : 56 min 20 s
Bit rate : 125 kb/s
Channel(s) : 2 channels
Channel layout : L R
Sampling rate : 48.0 kHz
Frame rate : 46.875 FPS (1024 SPF)
Compression mode : Lossy
Stream size : 50.5 MiB (8%)
Title : Uzbek by #Maksadjon_17
Language : Uzbek
Default : Yes
Forced : Yes
Text #1
ID : 3
Format : UTF-8
Codec ID : S_TEXT/UTF8
Codec ID/Info : UTF-8 Plain Text
Duration : 54 min 29 s
Bit rate : 61 b/s
Count of elements : 729
Stream size : 24.6 KiB (0%)
Language : English
Default : No
Forced : No
Text #2
ID : 4
Format : UTF-8
Codec ID : S_TEXT/UTF8
Codec ID/Info : UTF-8 Plain Text
Duration : 55 min 12 s
Bit rate : 67 b/s
Count of elements : 836
Stream size : 27.1 KiB (0%)
Language : English
Default : No
Forced : No
Text #3
ID : 5
Format : UTF-8
Codec ID : S_TEXT/UTF8
Codec ID/Info : UTF-8 Plain Text
Duration : 55 min 20 s
Bit rate : 53 b/s
Count of elements : 680
Stream size : 21.5 KiB (0%)
Language : Spanish
Default : No
Forced : No
Text #4
ID : 7
Format : UTF-8
Codec ID : S_TEXT/UTF8
Codec ID/Info : UTF-8 Plain Text
Duration : 15 s 0 ms
Bit rate : 22 b/s
Count of elements : 1
Stream size : 43.0 Bytes (0%)
Default : Yes
Forced : Yes
LAVHALAR

N.U.R.I.K.B.E.K

Не в сети

5417

Пол: Мужской

Стаж: 1 год 4 месяца

Сообщений: 43

Откуда: Jizzax.Paxtakor

Карма: 110

[+]

Провайдер: UzOnline UzOnline

Наличие запрета:



Награды: Нет

[Профиль] ЛС

Создавать темы 23-Авг-2020 12:36 (спустя 5 часов)

Цитировать

#Maksadjon_17, posterni kichikro qilin
Показать сообщения:    

Текущее время: 01-Дек 18:32

Часовой пояс: UTC - 5



Вы не можете начинать темы
Вы не можете отвечать на сообщения
Вы не можете редактировать свои сообщения
Вы не можете удалять свои сообщения
Вы не можете голосовать в опросах
Вы не можете прикреплять файлы к сообщениям
Вы не можете скачивать файлы