Регистрация ·
Имя: Пароль:  
· Забыли пароль? · Вопросы от гостей
Kliplar To'plami
O'zbek Tilida
Rizanova
12 Round
O'zbek Tilida
BluRay 1080p
Qo'riqchi ayol
O'zbek Tilida
BluRay 1080p
SHAFT
O'zbek Tilida
BDRip
SHAFT
O'zbek Tilida
WEBRip 1080p
Javohir politsiyachi
O'zbek Tilida
BDRip-AVC
So'nggi Ritsarlar
O'zbek Tilida
BluRay 1080p
Агент Ева
O'zbek Tilida
WEB-Rip
Анна
iTunes
BDRip 1080p
Анна
iTunes
BDRip-AVC
Анна
iTunes
BDRip
Mulan
O'zbek Tilida
WEBRip 1080p HEVC x265
Мулан
IdeaFilm
WEB-DL 720p
Мулан
IdeaFilm
WEB-DL 1080p
Мулан
IdeaFilm
WEB-DL 2160p
Temir Odam Uchligi
O'zbek Tilida
BluRay, 1080p, HEVC, x265, 10bit
Kliplar To'plami
O'zbek Tilida
Rizanova
Singularity
Repack
Mechanics
Tom Raider
Repack
Xatab
Far Cry New Dawn
Repack
Xatab
Far Cry 3
Repack
Xatab
Фитнес
Россия
WEB-DL 720p
Resident Evil
Гексалогия
Repack
Godzilla 2; Mahluqlar Qiroli
O'zbek Tilida
WEBRip HEVC 720p
Olimpning Qulashi
O'zbek Tilida
BDRip
X-Odamlar Qora Qaqnus
O'zbek Tilida
BDRip 1080p
Sevishganlar
O'zbek Tilida
HDRip
Maymunlar Sayyorasi Uchlik
O'zbek Tilida
BDRip
Koko Siri
O'zbek Tilida
BDRip-AVC
Спартак
РенТВ
BDRip 720p
Shelbilar oilasi
O'zbek Tilida
x265 1080p WEBRip 10bit
Однажды на востоке
Лицензия
BDRip 1080p
Yason va Argonaftlar
O'zbek Tilida
DVDRip x264
Shelbilar oilasi
O'zbek Tilida
BluRay 1080p x264
Qotillik Uchun Uch Kun
O'zbek Tilida
BluRay 1080p x264
Ko'd 211
O'zbek + Rus + Ing
BluRay 1080p
Интрижка
iTunes
WEB-DLRip
WarFace
Лицензия
Русский
Хоббит / Властелин колец
Коллекция
BDRip 1080p H264
SamDrivers
x32/x64
Repack
Чудесный доктор
WEB-DL 1080p
Турция
Острые козырьки
H265 1080p BluRay
Uzb+Ing
S.T.A.L.K.E.R
Анталогия
Repack
Зов джунглей
Рус
WEB-DL 1080p
Ajal Poygasi
Uzb Rus Ing
BrRip 1080p H264
Yengilmas Gvardiya
O'zbek Tilida
WEB-DL 1080p H264
Suv va Olov
O'zbek Tilida
BDRip H264
S.T.A.L.K.E.R.
Анталогия Модов
GSC Game World
GTA 5
RePack
Лицензия
Tunnel: Hayot uchun xavfli
Uzb Tilida
WEB-DL 1080p

До нового года осталось

Уважаемые гости сайта! Добро Пожаловать на наш торрент трекер,где Вы можете бесплатно скачать любой Софт,Фильмы,Музыку и многое другое! А так же постоянно ведется набор модераторов и релизеров. Зарегистрируйтесь сейчас, чтобы получить доступ ко всем функциям. После регистрации или входа на сайт вы сможете создавать темы, отвечать на сообщения и скачивать файлы.

Temir Odam: Trilogiya / Железный человек: Трилогия / Iron Man: Trilogy (2008-2013) [Fantastika, jangari, action, BluRay, 1080p, HEVC, x265, 10bit AAC 5.1] O'zbek, Rus va Ingliz tillarida by #Maksadjon_17

Статистика раздачи
Качаю: [ 2 ]
Скачал: [ 3 ]
Сегодня идет свободное скачивание без начисления Download
 
     
 
 
Автор Сообщение

#Maksadjon_17 ®

Не в сети

5497

Пол: Мужской

Стаж: 1 год 1 месяц

Сообщений: 28

Карма: 20

[+]

Провайдер: UzOnline UzOnline

Наличие запрета:



Награды: Нет

[Профиль] ЛС

Создавать темы 01-Сен-2020 04:29

Цитировать

Temir Odam: Trilogiya / Железный человек: Трилогия / Iron Man: Trilogy

-Chiqqan yili: 2008-2013
Davlat: AQSh
Janr: Fantastika, Jangari
Davomiyligi: 02:06:01 | 02:04:39 | 02:10:32
Tarjima: Professional (dublyaj qilingan) Uzbek tilida | My5 TV, Sevimli TV, Yoshlar TV, Kinoteatr
Tarjima 2: Professional (dublyaj qilingan) Rus tilida | BluRay
Tarjima 3: Professional (dublyaj qilingan) Ingliz tilida | iTunes Original
-Videoning sifati: BluRay, 1080p, HEVC, x265, 10bit
Video format: MKV
Video: HEVC, 1920 x 800 (2.388) 4 499 kb/s, 23.976 fps
Audio: AAC, 48.0 kHz, 6 ch, 448 kb/s, Uzbek
Audio 2: AC-3, 48.0 kHz, 6 ch, 640 kb/s, Russian
Audio 3: AC-3, 48.0 kHz, 6 ch, 640 kb/s, English
Audio 4: AAC, 48.0 kHz, 6 ch, 456 kb/s, English-Subtitrlar: Russian, English, French...
Hajmi: 16.3 GB

Temir Odam / Железный человек / Iron Man (2008) BluRay 1080p HEVC x265 10bit AAC 5.1

Temir Odam / Железный человек / Iron Man (2008)

Chiqqan yili: 2008
Davlat: AQSh
Janr: Fantastika, Jangari
Davomiyligi: 02:06:01
Tarjima: Professional (dublyaj qilingan) Uzbek tilida | Yoshlar TV
Tarjima 2: Professional (dublyaj qilingan) Rus tilida | BluRay
Tarjima 3: Professional (dublyaj qilingan) Ingliz tilida | iTunes Original-Rejissyor: Jon Favreau-Rollarda: Robert Downey Jr., Terrence Dashon Howard, Jeff Bridges, Gwyneth Paltrow, Leslie Bibb, Sean Tobe , Faran Tair, Syed Badreya, Bill Smitrovich, Clark Gregg-Tavsif: Milliarder ixtirochi Toni Starkni ommaviy qirg'in qurollarini yaratishga majburlamoqchi bo'lgan afg'on terrorchilari qo'lga olishdi. Stark o'z bosqinchilaridan bexabar, uning qochishiga yordam beradigan yuqori texnologiyali kiber zirhlarni yasaydi. Biroq, Qo'shma Shtatlarga qaytib kelgach, u o'zining kompaniyasining direktorlar kengashida fitna uyushtirilayotganini va bu dahshatli oqibatlarga olib kelishini biladi. Stark o'zining so'nggi ixtirosidan foydalanib, kompaniyasining muammolarini tubdan hal qilishga intilmoqda ...-Videoning sifati: BluRay, 1080p, HEVC, x265, 10bit
Video format: MKV
Video: HEVC, 1920 x 800 (2.388) 4 499 kb/s, 23.976 fps
Audio: AAC, 48.0 kHz, 2 ch, 256 kb/s, Uzbek
Audio 2: AC-3, 48.0 kHz, 6 ch, 640 kb/s, Russian
Audio 3: AC-3, 48.0 kHz, 8 ch, 640 kb/s, English
Audio 4: AAC, 48.0 kHz, 6 ch, 456 kb/s, English-Subtitrlar: Russian, English, French, Spanish, Portugal.
Hajmi: 5.73 GB

Media Info

General
Unique ID : 170995152756514187509299962541027970257 (0x80A477EFDEDBF1C12C62C5A352994CD1)
Complete name : D:\Iron Man Trilogy x265 HEVC\01. Iron Man 2008 1080p BluRay x265 HEVC 10bit AAC 5.1 by #Maksadjon_17.mkv
Format : Matroska
Format version : Version 4
File size : 5.73 GiB
Duration : 2 h 6 min
Overall bit rate : 6 513 kb/s
Movie name : Iron Man
Encoded date : UTC 2020-08-30 10:37:04
Writing application : mkvmerge v38.0.0 ('The Silent Type') 64-bit
Writing library : libebml v1.3.9 + libmatroska v1.5.2
Video
ID : 1
Format : HEVC
Format/Info : High Efficiency Video Coding
Format profile : Main 10@L4@Main
Codec ID : V_MPEGH/ISO/HEVC
Duration : 2 h 6 min
Bit rate : 4 499 kb/s
Width : 1 920 pixels
Height : 800 pixels
Display aspect ratio : 2.40:1
Frame rate mode : Constant
Frame rate : 23.976 (24000/1001) FPS
Color space : YUV
Chroma subsampling : 4:2:0
Bit depth : 10 bits
Bits/(Pixel*Frame) : 0.122
Stream size : 3.96 GiB (69%)
Writing library : x265 2.8+40-0106f9f2f867:[Windows][GCC 7.3.0][64 bit] 10bit
Encoding settings : cpuid=1111039 / frame-threads=3 / numa-pools=8 / wpp / no-pmode / no-pme / no-psnr / no-ssim / log-level=2 / input-csp=1 / input-res=1920x800 / interlace=0 / total-frames=181299 / level-idc=0 / high-tier=1 / uhd-bd=0 / ref=4 / no-allow-non-conformance / no-repeat-headers / annexb / no-aud / no-hrd / info / hash=0 / no-temporal-layers / open-gop / min-keyint=23 / keyint=250 / gop-lookahead=0 / bframes=4 / b-adapt=2 / b-pyramid / bframe-bias=0 / rc-lookahead=25 / lookahead-slices=4 / scenecut=40 / radl=0 / no-intra-refresh / ctu=64 / min-cu-size=8 / rect / no-amp / max-tu-size=32 / tu-inter-depth=1 / tu-intra-depth=1 / limit-tu=0 / rdoq-level=2 / dynamic-rd=0.00 / no-ssim-rd / signhide / no-tskip / nr-intra=0 / nr-inter=0 / no-constrained-intra / strong-intra-smoothing / max-merge=3 / limit-refs=3 / limit-modes / me=3 / subme=3 / merange=57 / temporal-mvp / weightp / no-weightb / no-analyze-src-pics / deblock=0:0 / sao / no-sao-non-deblock / rd=4 / no-early-skip / rskip / no-fast-intra / no-tskip-fast / no-cu-lossless / no-b-intra / no-splitrd-skip / rdpenalty=0 / psy-rd=2.00 / psy-rdoq=1.00 / no-rd-refine / no-lossless / cbqpoffs=0 / crqpoffs=0 / rc=abr / bitrate=4500 / qcomp=0.60 / qpstep=4 / stats-write=0 / stats-read=2 / cplxblur=20.0 / qblur=0.5 / ipratio=1.40 / pbratio=1.30 / aq-mode=3 / aq-strength=1.00 / cutree / zone-count=0 / no-strict-cbr / qg-size=32 / no-rc-grain / qpmax=69 / qpmin=0 / no-const-vbv / sar=0 / overscan=0 / videoformat=5 / range=0 / colorprim=2 / transfer=2 / colormatrix=2 / chromaloc=0 / display-window=0 / max-cll=0,0 / min-luma=0 / max-luma=1023 / log2-max-poc-lsb=8 / vui-timing-info / vui-hrd-info / slices=1 / no-opt-qp-pps / no-opt-ref-list-length-pps / multi-pass-opt-rps / scenecut-bias=0.05 / no-opt-cu-delta-qp / aq-motion / no-hdr / no-hdr-opt / no-dhdr10-opt / no-idr-recovery-sei / analysis-reuse-level=5 / scale-factor=0 / refine-intra=0 / refine-inter=0 / refine-mv=0 / no-limit-sao / ctu-info=0 / no-lowpass-dct / refine-mv-type=0 / copy-pic=1 / max-ausize-factor=1.0 / no-dynamic-refine / no-single-sei
Default : Yes
Forced : No
Audio #1
ID : 2
Format : AAC LC
Format/Info : Advanced Audio Codec Low Complexity
Codec ID : A_AAC-2
Duration : 2 h 6 min
Bit rate : 456 kb/s
Channel(s) : 6 channels
Channel layout : C L R Ls Rs LFE
Sampling rate : 48.0 kHz
Frame rate : 46.875 FPS (1024 SPF)
Compression mode : Lossy
Delay relative to video : 20 ms
Stream size : 411 MiB (7%)
Language : English
Default : No
Forced : No
Audio #2
ID : 8
Format : AC-3
Format/Info : Audio Coding 3
Commercial name : Dolby Digital
Codec ID : A_AC3
Duration : 2 h 6 min
Bit rate mode : Constant
Bit rate : 640 kb/s
Channel(s) : 6 channels
Channel layout : L R C LFE Ls Rs
Sampling rate : 48.0 kHz
Frame rate : 31.250 FPS (1536 SPF)
Compression mode : Lossy
Stream size : 577 MiB (10%)
Title : Дубляж
Language : Russian
Service kind : Complete Main
Default : No
Forced : No
Audio #3
ID : 9
Format : AC-3
Format/Info : Audio Coding 3
Commercial name : Dolby Digital
Codec ID : A_AC3
Duration : 2 h 6 min
Bit rate mode : Constant
Bit rate : 640 kb/s
Channel(s) : 6 channels
Channel layout : L R C LFE Ls Rs
Sampling rate : 48.0 kHz
Frame rate : 31.250 FPS (1536 SPF)
Compression mode : Lossy
Stream size : 577 MiB (10%)
Title : Оригинал
Language : English
Service kind : Complete Main
Default : No
Forced : No
Audio #4
ID : 15
Format : AAC LC
Format/Info : Advanced Audio Codec Low Complexity
Codec ID : A_AAC-2
Duration : 2 h 6 min
Bit rate : 253 kb/s
Channel(s) : 2 channels
Channel layout : L R
Sampling rate : 48.0 kHz
Frame rate : 46.875 FPS (1024 SPF)
Compression mode : Lossy
Delay relative to video : 2 s 0 ms
Stream size : 228 MiB (4%)
Title : Uzbek | by #Maksadjon_17
Language : Uzbek
Default : Yes
Forced : Yes
Text #1
ID : 3
Format : VobSub
Muxing mode : zlib
Codec ID : S_VOBSUB
Codec ID/Info : Picture based subtitle format used on DVDs
Duration : 2 h 4 min
Bit rate : 10.7 kb/s
Count of elements : 1487
Stream size : 9.53 MiB (0%)
Language : English
Default : No
Forced : No
Text #2
ID : 4
Format : VobSub
Muxing mode : zlib
Codec ID : S_VOBSUB
Codec ID/Info : Picture based subtitle format used on DVDs
Duration : 1 h 3 min
Bit rate : 182 b/s
Count of elements : 37
Stream size : 84.6 KiB (0%)
Title : Forced
Language : English
Default : No
Forced : Yes
Text #3
ID : 5
Format : VobSub
Muxing mode : zlib
Codec ID : S_VOBSUB
Codec ID/Info : Picture based subtitle format used on DVDs
Duration : 2 h 4 min
Bit rate : 8 972 b/s
Count of elements : 1344
Stream size : 8.01 MiB (0%)
Language : French
Default : No
Forced : No
Text #4
ID : 6
Format : VobSub
Muxing mode : zlib
Codec ID : S_VOBSUB
Codec ID/Info : Picture based subtitle format used on DVDs
Duration : 2 h 4 min
Bit rate : 7 611 b/s
Count of elements : 1292
Stream size : 6.80 MiB (0%)
Language : Spanish
Default : No
Forced : No
Text #5
ID : 7
Format : VobSub
Muxing mode : zlib
Codec ID : S_VOBSUB
Codec ID/Info : Picture based subtitle format used on DVDs
Duration : 2 h 4 min
Bit rate : 7 678 b/s
Count of elements : 1312
Stream size : 6.86 MiB (0%)
Language : Portuguese
Default : No
Forced : No
Text #6
ID : 10
Format : UTF-8
Codec ID : S_TEXT/UTF8
Codec ID/Info : UTF-8 Plain Text
Duration : 1 h 3 min
Bit rate : 2 b/s
Count of elements : 37
Stream size : 1.13 KiB (0%)
Title : Forced
Language : Russian
Default : No
Forced : Yes
Text #7
ID : 11
Format : UTF-8
Codec ID : S_TEXT/UTF8
Codec ID/Info : UTF-8 Plain Text
Duration : 2 h 4 min
Bit rate : 87 b/s
Count of elements : 1345
Stream size : 80.2 KiB (0%)
Title : Full
Language : Russian
Default : No
Forced : No
Text #8
ID : 12
Format : UTF-8
Codec ID : S_TEXT/UTF8
Codec ID/Info : UTF-8 Plain Text
Duration : 2 h 4 min
Bit rate : 59 b/s
Count of elements : 1339
Stream size : 53.8 KiB (0%)
Title : Full
Language : English
Default : No
Forced : No
Text #9
ID : 13
Format : UTF-8
Codec ID : S_TEXT/UTF8
Codec ID/Info : UTF-8 Plain Text
Duration : 1 h 3 min
Bit rate : 1 b/s
Count of elements : 38
Stream size : 750 Bytes (0%)
Default : No
Forced : No
Text #10
ID : 14
Format : UTF-8
Codec ID : S_TEXT/UTF8
Codec ID/Info : UTF-8 Plain Text
Duration : 2 h 4 min
Bit rate : 58 b/s
Count of elements : 1357
Stream size : 53.1 KiB (0%)
Default : No
Forced : No
Text #11
ID : 16
Format : UTF-8
Codec ID : S_TEXT/UTF8
Codec ID/Info : UTF-8 Plain Text
Duration : 15 s 0 ms
Bit rate : 22 b/s
Count of elements : 1
Stream size : 43.0 Bytes (0%)
Default : Yes
Forced : Yes
Menu
00:00:00.000 : en:Chapter 01
00:09:06.170 : en:Chapter 02
00:18:00.579 : en:Chapter 03
00:26:49.941 : en:Chapter 04
00:35:01.849 : en:Chapter 05
00:43:15.259 : en:Chapter 06
00:52:38.488 : en:Chapter 07
00:59:24.644 : en:Chapter 08
01:07:32.423 : en:Chapter 09
01:11:44.300 : en:Chapter 10
01:18:31.206 : en:Chapter 11
01:24:40.575 : en:Chapter 12
01:35:00.111 : en:Chapter 13
01:44:29.346 : en:Chapter 14
01:53:31.471 : en:Chapter 15

Lavhalar

Temir Odam 2 / Железный человек 2 / Iron Man 2 (2010) BluRay 1080p HEVC x265 10bit AAC 5.1

Temir Odam 2 / Железный человек 2 / Iron Man 2 (2010)

Chiqqan yili: 2010
Davlat: AQSh
Janr: Fantastika, Jangari
Davomiyligi: 02:04:39
Tarjima: Professional (dublyaj qilingan) Uzbek tilida | Kinoteatr TV, Yoshlar TV
Tarjima 2: Professional (dublyaj qilingan) Rus tilida | BluRay
Tarjima 3: Professional (dublyaj qilingan) Ingliz tilida | iTunes Original-Rejissyor: Jon Favreau-Rollarda: Robert Downey Jr., Don Cheadle, Scarlett Johansson, Gwyneth Paltrow, Mickey Rourke, Samuel L.Jackson, Sam Rockwell, Jon Favreau, John Slattery, Clark Gregg-Tavsif: Olti oy o'tdi, dunyo milliarder ixtirochi Toni Stark "Iron Man" ning noyob kiber zirhining egasi ekanligini bildi. Jamiyat Starkdan zirh texnologiyasini AQSh hukumatiga o'tkazishni talab qilmoqda, ammo Toni uning sirlarini oshkor qilishni istamaydi, chunki u noto'g'ri qo'llarga tushib qolishidan qo'rqadi. Ayni paytda, bir vaqtlar Stark firmasida ishlagan, ammo keyin ishdan bo'shatilgan va hamma narsadan mahrum bo'lgan rus olimining o'g'li Ivan Vanko Toni oilasining muammolari uchun qasos olmoqchi. Nima uchun u o'zining yuqori texnologik qurollarini ishlab chiqaradi.-Videoning sifati: BluRay, 1080p, HEVC, x265, 10bit
Video format: MKV
Video: HEVC, 1920 x 816 (2.388) 4 249 kb/s, 23.976 fps
Audio: AAC, 48.0 kHz, 2 ch, 256 kb/s, Uzbek
Audio 2: AC-3, 48.0 kHz, 6 ch, 640 kb/s, Russian
Audio 3: AC-3, 48.0 kHz, 6 ch, 640 kb/s, English
Audio 4: AAC, 48.0 kHz, 6 ch, 456 kb/s, English-Subtitrlar: Russian, English, French, Spanish, Portugal.
Hajmi: 5.51 GB

Media Info

General
Unique ID : 323173185038803511176712203623519693232 (0xF320E434AF96727D6225B68B3CC329B0)
Complete name : D:\Iron Man Trilogy x265 HEVC\02. Iron Man 2 2010 1080p BluRay x265 HEVC 10bit AAC 5.1 by #Maksadjon_17.mkv
Format : Matroska
Format version : Version 4
File size : 5.51 GiB
Duration : 2 h 4 min
Overall bit rate : 6 331 kb/s
Movie name : Iron Man 2
Encoded date : UTC 2020-08-31 18:38:57
Writing application : mkvmerge v38.0.0 ('The Silent Type') 64-bit
Writing library : libebml v1.3.9 + libmatroska v1.5.2
Video
ID : 1
Format : HEVC
Format/Info : High Efficiency Video Coding
Format profile : Main 10@L4@Main
Codec ID : V_MPEGH/ISO/HEVC
Duration : 2 h 4 min
Bit rate : 4 249 kb/s
Width : 1 920 pixels
Height : 816 pixels
Display aspect ratio : 2.35:1
Frame rate mode : Constant
Frame rate : 23.976 (24000/1001) FPS
Color space : YUV
Chroma subsampling : 4:2:0
Bit depth : 10 bits
Bits/(Pixel*Frame) : 0.113
Stream size : 3.70 GiB (67%)
Writing library : x265 2.8+40-0106f9f2f867:[Windows][GCC 7.3.0][64 bit] 10bit
Encoding settings : cpuid=1111039 / frame-threads=3 / numa-pools=8 / wpp / no-pmode / no-pme / no-psnr / no-ssim / log-level=2 / input-csp=1 / input-res=1920x816 / interlace=0 / total-frames=179320 / level-idc=0 / high-tier=1 / uhd-bd=0 / ref=4 / no-allow-non-conformance / no-repeat-headers / annexb / no-aud / no-hrd / info / hash=0 / no-temporal-layers / open-gop / min-keyint=23 / keyint=250 / gop-lookahead=0 / bframes=4 / b-adapt=2 / b-pyramid / bframe-bias=0 / rc-lookahead=25 / lookahead-slices=4 / scenecut=40 / radl=0 / no-intra-refresh / ctu=64 / min-cu-size=8 / rect / no-amp / max-tu-size=32 / tu-inter-depth=1 / tu-intra-depth=1 / limit-tu=0 / rdoq-level=2 / dynamic-rd=0.00 / no-ssim-rd / signhide / no-tskip / nr-intra=0 / nr-inter=0 / no-constrained-intra / strong-intra-smoothing / max-merge=3 / limit-refs=3 / limit-modes / me=3 / subme=3 / merange=57 / temporal-mvp / weightp / no-weightb / no-analyze-src-pics / deblock=0:0 / sao / no-sao-non-deblock / rd=4 / no-early-skip / rskip / no-fast-intra / no-tskip-fast / no-cu-lossless / no-b-intra / no-splitrd-skip / rdpenalty=0 / psy-rd=2.00 / psy-rdoq=1.00 / no-rd-refine / no-lossless / cbqpoffs=0 / crqpoffs=0 / rc=abr / bitrate=4250 / qcomp=0.60 / qpstep=4 / stats-write=0 / stats-read=2 / cplxblur=20.0 / qblur=0.5 / ipratio=1.40 / pbratio=1.30 / aq-mode=3 / aq-strength=1.00 / cutree / zone-count=0 / no-strict-cbr / qg-size=32 / no-rc-grain / qpmax=69 / qpmin=0 / no-const-vbv / sar=0 / overscan=0 / videoformat=5 / range=0 / colorprim=2 / transfer=2 / colormatrix=2 / chromaloc=0 / display-window=0 / max-cll=0,0 / min-luma=0 / max-luma=1023 / log2-max-poc-lsb=8 / vui-timing-info / vui-hrd-info / slices=1 / no-opt-qp-pps / no-opt-ref-list-length-pps / multi-pass-opt-rps / scenecut-bias=0.05 / no-opt-cu-delta-qp / aq-motion / no-hdr / no-hdr-opt / no-dhdr10-opt / no-idr-recovery-sei / analysis-reuse-level=5 / scale-factor=0 / refine-intra=0 / refine-inter=0 / refine-mv=0 / no-limit-sao / ctu-info=0 / no-lowpass-dct / refine-mv-type=0 / copy-pic=1 / max-ausize-factor=1.0 / no-dynamic-refine / no-single-sei
Default : Yes
Forced : No
Audio #1
ID : 2
Format : AAC LC
Format/Info : Advanced Audio Codec Low Complexity
Codec ID : A_AAC-2
Duration : 2 h 4 min
Bit rate : 453 kb/s
Channel(s) : 6 channels
Channel layout : C L R Ls Rs LFE
Sampling rate : 48.0 kHz
Frame rate : 46.875 FPS (1024 SPF)
Compression mode : Lossy
Delay relative to video : 20 ms
Stream size : 404 MiB (7%)
Language : English
Default : No
Forced : No
Audio #2
ID : 3
Format : AAC LC SBR
Format/Info : Advanced Audio Codec Low Complexity with Spectral Band Replication
Commercial name : HE-AAC
Format settings : Explicit
Codec ID : A_AAC-2
Duration : 2 h 4 min
Bit rate : 66.2 kb/s
Channel(s) : 2 channels
Channel layout : L R
Sampling rate : 48.0 kHz
Frame rate : 23.438 FPS (2048 SPF)
Compression mode : Lossy
Delay relative to video : 40 ms
Stream size : 58.6 MiB (1%)
Title : Commentary
Language : English
Default : No
Forced : No
Audio #3
ID : 8
Format : AC-3
Format/Info : Audio Coding 3
Commercial name : Dolby Digital
Codec ID : A_AC3
Duration : 2 h 4 min
Bit rate mode : Constant
Bit rate : 640 kb/s
Channel(s) : 6 channels
Channel layout : L R C LFE Ls Rs
Sampling rate : 48.0 kHz
Frame rate : 31.250 FPS (1536 SPF)
Compression mode : Lossy
Stream size : 571 MiB (10%)
Title : Дубляж
Language : Russian
Service kind : Complete Main
Default : No
Forced : No
Audio #4
ID : 9
Format : AC-3
Format/Info : Audio Coding 3
Commercial name : Dolby Digital
Codec ID : A_AC3
Duration : 2 h 4 min
Bit rate mode : Constant
Bit rate : 640 kb/s
Channel(s) : 6 channels
Channel layout : L R C LFE Ls Rs
Sampling rate : 48.0 kHz
Frame rate : 31.250 FPS (1536 SPF)
Compression mode : Lossy
Stream size : 571 MiB (10%)
Title : Оригинал
Language : English
Service kind : Complete Main
Default : No
Forced : No
Audio #5
ID : 13
Format : AAC LC
Format/Info : Advanced Audio Codec Low Complexity
Codec ID : A_AAC-2
Duration : 2 h 4 min
Bit rate : 253 kb/s
Channel(s) : 2 channels
Channel layout : L R
Sampling rate : 48.0 kHz
Frame rate : 46.875 FPS (1024 SPF)
Compression mode : Lossy
Delay relative to video : 2 s 500 ms
Stream size : 226 MiB (4%)
Title : Uzbek | by #Maksadjon_17
Language : Uzbek
Default : Yes
Forced : Yes
Text #1
ID : 4
Format : VobSub
Muxing mode : zlib
Codec ID : S_VOBSUB
Codec ID/Info : Picture based subtitle format used on DVDs
Duration : 2 h 4 min
Bit rate : 12.8 kb/s
Count of elements : 1719
Stream size : 11.4 MiB (0%)
Language : English
Default : No
Forced : No
Text #2
ID : 5
Format : VobSub
Muxing mode : zlib
Codec ID : S_VOBSUB
Codec ID/Info : Picture based subtitle format used on DVDs
Duration : 2 h 4 min
Bit rate : 10.1 kb/s
Count of elements : 1545
Stream size : 9.00 MiB (0%)
Language : French
Default : No
Forced : No
Text #3
ID : 6
Format : VobSub
Muxing mode : zlib
Codec ID : S_VOBSUB
Codec ID/Info : Picture based subtitle format used on DVDs
Duration : 2 h 4 min
Bit rate : 9 084 b/s
Count of elements : 1396
Stream size : 8.07 MiB (0%)
Language : Portuguese
Default : No
Forced : No
Text #4
ID : 7
Format : VobSub
Muxing mode : zlib
Codec ID : S_VOBSUB
Codec ID/Info : Picture based subtitle format used on DVDs
Duration : 2 h 4 min
Bit rate : 8 664 b/s
Count of elements : 1495
Stream size : 7.69 MiB (0%)
Language : Spanish
Default : No
Forced : No
Text #5
ID : 10
Format : UTF-8
Codec ID : S_TEXT/UTF8
Codec ID/Info : UTF-8 Plain Text
Duration : 2 h 3 min
Bit rate : 1 b/s
Count of elements : 22
Stream size : 1.05 KiB (0%)
Title : Forced
Language : Russian
Default : No
Forced : Yes
Text #6
ID : 11
Format : UTF-8
Codec ID : S_TEXT/UTF8
Codec ID/Info : UTF-8 Plain Text
Duration : 2 h 4 min
Bit rate : 109 b/s
Count of elements : 1550
Stream size : 99.7 KiB (0%)
Title : Full
Language : Russian
Default : No
Forced : No
Text #7
ID : 12
Format : UTF-8
Codec ID : S_TEXT/UTF8
Codec ID/Info : UTF-8 Plain Text
Duration : 2 h 4 min
Bit rate : 64 b/s
Count of elements : 1524
Stream size : 58.9 KiB (0%)
Title : Full
Language : English
Default : No
Forced : No
Text #8
ID : 14
Format : UTF-8
Codec ID : S_TEXT/UTF8
Codec ID/Info : UTF-8 Plain Text
Duration : 2 h 4 min
Bit rate : 65 b/s
Count of elements : 1523
Stream size : 59.2 KiB (0%)
Default : No
Forced : No
Text #9
ID : 15
Format : UTF-8
Codec ID : S_TEXT/UTF8
Codec ID/Info : UTF-8 Plain Text
Duration : 10 s 0 ms
Bit rate : 34 b/s
Count of elements : 1
Stream size : 43.0 Bytes (0%)
Title : Remade
Language : Uzbek
Default : Yes
Forced : Yes
Menu #1
00:00:00.000 : en:Chapter 01
00:05:04.304 : en:Chapter 02
00:11:07.583 : en:Chapter 03
00:17:59.953 : en:Chapter 04
00:25:53.009 : en:Chapter 05
00:30:26.783 : en:Chapter 06
00:37:33.000 : en:Chapter 07
00:43:59.637 : en:Chapter 08
00:51:39.346 : en:Chapter 09
01:00:10.898 : en:Chapter 10
01:07:01.517 : en:Chapter 11
01:16:00.764 : en:Chapter 12
01:21:13.285 : en:Chapter 13
01:30:33.553 : en:Chapter 14
01:38:49.340 : en:Chapter 15
01:45:41.793 : en:Chapter 16
01:54:17.350 : en:Chapter 17

Lavhalar

Temir Odam 3 / Железный человек 3 / Iron Man 3 (2013) BluRay 1080p HEVC x265 10bit AAC 7.1

Temir Odam 3 / Железный человек 3 / Iron Man 3 (2013)

Chiqqan yili: 2013
Davlat: AQSh
Janr: Fantastika, Jangari
Davomiyligi: 02:10:32
Tarjima: Professional (dublyaj qilingan) Uzbek tilida | Sevimli TV, My5 TV
Tarjima 2: Professional (dublyaj qilingan) Rus tilida | BluRay
Tarjima 3: Professional (dublyaj qilingan) Ingliz tilida | iTunes Original-Rejissyor: Shane Black-Rollarda: Robert Downey Jr., Gwyneth Paltrow, Don Cheadle, Guy Pearce, Ben Kingsley, James Badge Dale, Rebecca Hall, Ty Simpkins, William Sadler, Jon Favreau-Tavsif: Noma'lum raqiblarning aybi tufayli Starkning dunyosi uning ko'z oldida qulab tushganda, Toni aybdorlarni topishga va ular bilan hisob-kitob qilishga intiladi. O'zini umidsiz vaziyatga tushirib, Stark o'zi uchun qadrdon bo'lganlarni himoya qilish uchun faqat o'ziga va uning zukkoligiga ishonishi mumkin. Bu qahramon uchun haqiqiy sinovga aylanadi, u nafaqat hiyla-nayrangli dushmanga qarshi kurashishi kerak, balki o'zini uzoq vaqtdan beri qiynab kelayotgan savolga javob topish uchun o'zini tushunishi kerak bo'ladi: qaysi biri muhimroq - odammi yoki kostyummi?-Videoning sifati: BluRay, 1080p, HEVC, x265, 10bit
Video format: MKV
Video: HEVC, 1920 x 800 (2.388) 3 518 kb/s, 23.976 fps
Audio: AAC, 48.0 kHz, 6 ch, 448 kb/s, Uzbek | My5 TV
Audio 2: AC-3, 48.0 kHz, 6 ch, 640 kb/s, Russian
Audio 3: AC-3, 48.0 kHz, 6 ch, 640 kb/s, English
Audio 4: AAC, 48.0 kHz, 8 ch, 456 kb/s, English
Audio 5: AAC, 48.0 kHz, 2 ch, 256 kb/s, Uzbek | Sevimli TV-Subtitrlar: Russian, English, French, Spanish, Portugal.
Hajmi: 5.06 GB

Media Info

General
Unique ID : 53910216901144639431703570904310963424 (0x288EBAE815B368831748D4E91C7D5CE0)
Complete name : D:\Iron Man Trilogy x265 HEVC\03. Iron Man 3 2013 1080p BluRay x265 HEVC 10bit AAC 7.1 by #Maksadjon_17.mkv
Format : Matroska
Format version : Version 4
File size : 5.06 GiB
Duration : 2 h 10 min
Overall bit rate : 5 552 kb/s
Movie name : Железный человек 3 2.2013
Encoded date : UTC 2020-08-30 11:01:47
Writing application : mkvmerge v38.0.0 ('The Silent Type') 64-bit
Writing library : libebml v1.3.9 + libmatroska v1.5.2
Video
ID : 2
Format : HEVC
Format/Info : High Efficiency Video Coding
Format profile : Main 10@L4@Main
Codec ID : V_MPEGH/ISO/HEVC
Duration : 2 h 10 min
Bit rate : 3 518 kb/s
Width : 1 920 pixels
Height : 800 pixels
Display aspect ratio : 2.40:1
Frame rate mode : Constant
Frame rate : 23.976 (24000/1001) FPS
Color space : YUV
Chroma subsampling : 4:2:0
Bit depth : 10 bits
Bits/(Pixel*Frame) : 0.096
Stream size : 3.21 GiB (63%)
Writing library : x265 2.8+40-0106f9f2f867:[Windows][GCC 7.3.0][64 bit] 10bit
Encoding settings : cpuid=1111039 / frame-threads=3 / numa-pools=8 / wpp / no-pmode / no-pme / no-psnr / no-ssim / log-level=2 / input-csp=1 / input-res=1920x800 / interlace=0 / total-frames=187801 / level-idc=0 / high-tier=1 / uhd-bd=0 / ref=4 / no-allow-non-conformance / no-repeat-headers / annexb / no-aud / no-hrd / info / hash=0 / no-temporal-layers / open-gop / min-keyint=23 / keyint=250 / gop-lookahead=0 / bframes=4 / b-adapt=2 / b-pyramid / bframe-bias=0 / rc-lookahead=25 / lookahead-slices=4 / scenecut=40 / radl=0 / no-intra-refresh / ctu=64 / min-cu-size=8 / rect / no-amp / max-tu-size=32 / tu-inter-depth=1 / tu-intra-depth=1 / limit-tu=0 / rdoq-level=2 / dynamic-rd=0.00 / no-ssim-rd / signhide / no-tskip / nr-intra=0 / nr-inter=0 / no-constrained-intra / strong-intra-smoothing / max-merge=3 / limit-refs=3 / limit-modes / me=3 / subme=3 / merange=57 / temporal-mvp / weightp / no-weightb / no-analyze-src-pics / deblock=0:0 / sao / no-sao-non-deblock / rd=4 / no-early-skip / rskip / no-fast-intra / no-tskip-fast / no-cu-lossless / no-b-intra / no-splitrd-skip / rdpenalty=0 / psy-rd=2.00 / psy-rdoq=1.00 / no-rd-refine / no-lossless / cbqpoffs=0 / crqpoffs=0 / rc=crf / crf=18.0 / qcomp=0.60 / qpstep=4 / stats-write=0 / stats-read=0 / ipratio=1.40 / pbratio=1.30 / aq-mode=3 / aq-strength=1.00 / cutree / zone-count=0 / no-strict-cbr / qg-size=32 / no-rc-grain / qpmax=69 / qpmin=0 / no-const-vbv / sar=0 / overscan=0 / videoformat=5 / range=0 / colorprim=2 / transfer=2 / colormatrix=2 / chromaloc=0 / display-window=0 / max-cll=0,0 / min-luma=0 / max-luma=1023 / log2-max-poc-lsb=8 / vui-timing-info / vui-hrd-info / slices=1 / no-opt-qp-pps / no-opt-ref-list-length-pps / no-multi-pass-opt-rps / scenecut-bias=0.05 / no-opt-cu-delta-qp / aq-motion / no-hdr / no-hdr-opt / no-dhdr10-opt / no-idr-recovery-sei / analysis-reuse-level=5 / scale-factor=0 / refine-intra=0 / refine-inter=0 / refine-mv=0 / no-limit-sao / ctu-info=0 / no-lowpass-dct / refine-mv-type=0 / copy-pic=1 / max-ausize-factor=1.0 / no-dynamic-refine / no-single-sei
Default : Yes
Forced : No
Audio #1
ID : 3
Format : AAC LC
Format/Info : Advanced Audio Codec Low Complexity
Codec ID : A_AAC-2
Duration : 2 h 10 min
Bit rate : 576 kb/s
Channel(s) : 8 channels
Channel layout : C L R Ls Rs Lb Rb LFE
Sampling rate : 48.0 kHz
Frame rate : 46.875 FPS (1024 SPF)
Compression mode : Lossy
Delay relative to video : 20 ms
Stream size : 529 MiB (10%)
Language : English
Default : No
Forced : No
Audio #2
ID : 4
Format : AAC LC SBR
Format/Info : Advanced Audio Codec Low Complexity with Spectral Band Replication
Commercial name : HE-AAC
Format settings : Explicit
Codec ID : A_AAC-2
Duration : 2 h 10 min
Bit rate : 66.2 kb/s
Channel(s) : 2 channels
Channel layout : L R
Sampling rate : 48.0 kHz
Frame rate : 23.438 FPS (2048 SPF)
Compression mode : Lossy
Delay relative to video : 40 ms
Stream size : 61.3 MiB (1%)
Title : Commentary
Language : English
Default : No
Forced : No
Audio #3
ID : 11
Format : AC-3
Format/Info : Audio Coding 3
Commercial name : Dolby Digital
Codec ID : A_AC3
Duration : 2 h 10 min
Bit rate mode : Constant
Bit rate : 640 kb/s
Channel(s) : 6 channels
Channel layout : L R C LFE Ls Rs
Sampling rate : 48.0 kHz
Frame rate : 31.250 FPS (1536 SPF)
Compression mode : Lossy
Stream size : 598 MiB (12%)
Title : Дубляж
Language : Russian
Service kind : Complete Main
Default : No
Forced : No
Audio #4
ID : 15
Format : AAC LC
Format/Info : Advanced Audio Codec Low Complexity
Codec ID : A_AAC-2
Duration : 2 h 10 min
Bit rate : 253 kb/s
Channel(s) : 2 channels
Channel layout : L R
Sampling rate : 48.0 kHz
Frame rate : 46.875 FPS (1024 SPF)
Compression mode : Lossy
Stream size : 237 MiB (5%)
Title : Uzbek Sevimli TV | by #Maksadjon_17
Language : Uzbek
Default : No
Forced : Yes
Audio #5
ID : 17
Format : AAC LC
Format/Info : Advanced Audio Codec Low Complexity
Codec ID : A_AAC-2
Duration : 2 h 10 min
Bit rate : 445 kb/s
Channel(s) : 6 channels
Channel layout : C L R Ls Rs LFE
Sampling rate : 48.0 kHz
Frame rate : 46.875 FPS (1024 SPF)
Compression mode : Lossy
Stream size : 416 MiB (8%)
Title : Uzbek My5 TV | by #Maksadjon_17
Language : Uzbek
Default : Yes
Forced : Yes
Text #1
ID : 1
Format : UTF-8
Codec ID : S_TEXT/UTF8
Codec ID/Info : UTF-8 Plain Text
Duration : 15 s 0 ms
Bit rate : 22 b/s
Count of elements : 1
Stream size : 43.0 Bytes (0%)
Default : Yes
Forced : Yes
Text #2
ID : 5
Format : VobSub
Muxing mode : zlib
Codec ID : S_VOBSUB
Codec ID/Info : Picture based subtitle format used on DVDs
Duration : 2 h 10 min
Bit rate : 12.6 kb/s
Count of elements : 2171
Stream size : 11.7 MiB (0%)
Language : English
Default : No
Forced : No
Text #3
ID : 6
Format : VobSub
Muxing mode : zlib
Codec ID : S_VOBSUB
Codec ID/Info : Picture based subtitle format used on DVDs
Duration : 2 h 10 min
Bit rate : 21.1 kb/s
Count of elements : 2488
Stream size : 19.6 MiB (0%)
Title : Commentary
Language : English
Default : No
Forced : No
Text #4
ID : 7
Format : VobSub
Muxing mode : zlib
Codec ID : S_VOBSUB
Codec ID/Info : Picture based subtitle format used on DVDs
Duration : 2 h 10 min
Bit rate : 9 907 b/s
Count of elements : 1772
Stream size : 9.23 MiB (0%)
Language : French
Default : No
Forced : No
Text #5
ID : 8
Format : VobSub
Muxing mode : zlib
Codec ID : S_VOBSUB
Codec ID/Info : Picture based subtitle format used on DVDs
Duration : 2 h 10 min
Bit rate : 17.5 kb/s
Count of elements : 2422
Stream size : 16.3 MiB (0%)
Title : Commentary
Language : French
Default : No
Forced : No
Text #6
ID : 9
Format : VobSub
Muxing mode : zlib
Codec ID : S_VOBSUB
Codec ID/Info : Picture based subtitle format used on DVDs
Duration : 2 h 10 min
Bit rate : 10.1 kb/s
Count of elements : 1729
Stream size : 9.39 MiB (0%)
Language : Spanish
Default : No
Forced : No
Text #7
ID : 10
Format : VobSub
Muxing mode : zlib
Codec ID : S_VOBSUB
Codec ID/Info : Picture based subtitle format used on DVDs
Duration : 2 h 10 min
Bit rate : 17.4 kb/s
Count of elements : 2422
Stream size : 16.2 MiB (0%)
Title : Commentary
Language : Spanish
Default : No
Forced : No
Text #8
ID : 12
Format : UTF-8
Codec ID : S_TEXT/UTF8
Codec ID/Info : UTF-8 Plain Text
Duration : 2 h 9 min
Bit rate : 0 b/s
Count of elements : 9
Stream size : 381 Bytes (0%)
Title : Forced
Language : Russian
Default : No
Forced : Yes
Text #9
ID : 13
Format : UTF-8
Codec ID : S_TEXT/UTF8
Codec ID/Info : UTF-8 Plain Text
Duration : 2 h 10 min
Bit rate : 91 b/s
Count of elements : 1729
Stream size : 87.4 KiB (0%)
Title : Full
Language : Russian
Default : No
Forced : No
Text #10
ID : 14
Format : UTF-8
Codec ID : S_TEXT/UTF8
Codec ID/Info : UTF-8 Plain Text
Duration : 2 h 10 min
Bit rate : 60 b/s
Count of elements : 1740
Stream size : 58.0 KiB (0%)
Title : Full
Language : English
Default : No
Forced : No
Text #11
ID : 16
Format : UTF-8
Codec ID : S_TEXT/UTF8
Codec ID/Info : UTF-8 Plain Text
Duration : 2 h 10 min
Bit rate : 58 b/s
Count of elements : 1733
Stream size : 56.0 KiB (0%)
Default : No
Forced : No
Menu
00:00:00.000 : en:Chapter 01
00:04:52.750 : en:Chapter 02
00:07:55.433 : en:Chapter 03
00:12:12.440 : en:Chapter 04
00:19:04.101 : en:Chapter 05
00:23:47.884 : en:Chapter 06
00:29:47.702 : en:Chapter 07
00:39:46.384 : en:Chapter 08
00:45:56.044 : en:Chapter 09
00:59:19.639 : en:Chapter 10
01:01:56.921 : en:Chapter 11
01:09:24.451 : en:Chapter 12
01:18:41.508 : en:Chapter 13
01:23:52.944 : en:Chapter 14
01:37:55.995 : en:Chapter 15
01:56:18.304 : en:Chapter 16
01:59:38.754 : en:Chapter 17

Lavhalar

#Maksadjon_17 ®

Не в сети

5497

Пол: Мужской

Стаж: 1 год 1 месяц

Сообщений: 28

Карма: 20

[+]

Провайдер: UzOnline UzOnline

Наличие запрета:



Награды: Нет

[Профиль] ЛС

Создавать темы 13-Сен-2020 05:14 (спустя 12 дней)

Цитировать

Akalar yuklab bo'lganlar tarqatishgayam yordam bervoringlar.

#Maksadjon_17 ®

Не в сети

5497

Пол: Мужской

Стаж: 1 год 1 месяц

Сообщений: 28

Карма: 20

[+]

Провайдер: UzOnline UzOnline

Наличие запрета:



Награды: Нет

[Профиль] ЛС

Создавать темы 13-Сен-2020 05:16 (спустя 1 минута)

Цитировать

Sukhrobbek razdachaga yordam qivoring yuklab bo'bsiz manda tezlik pasayib qoldi.
Показать сообщения:    

Текущее время: 01-Дек 19:20

Часовой пояс: UTC - 5



Вы не можете начинать темы
Вы не можете отвечать на сообщения
Вы не можете редактировать свои сообщения
Вы не можете удалять свои сообщения
Вы не можете голосовать в опросах
Вы не можете прикреплять файлы к сообщениям
Вы не можете скачивать файлы