Регистрация ·
Имя: Пароль:  
· Забыли пароль? · Вопросы от гостей
Круиз по джунглям
Pazl Voice
WEB-DLRip-AVC
Папа Закодировался
Не требуется
WEB-DLRip
Маша
Не требуется
WEBRip
Прячься
iTunes
WEB-DL 1080p
The Ascent
RePack
Action, RPG
Форсаж 9
Чистый звук
WEB-DL 720p
Форсаж 9
Чистый звук
WEB-DLRip
Форсаж 9
Pazl Voice
WEB-DL 1080p
Папа за маму
iTunes
WEB-DLRip
Windows 7/10
Microsoft
7.7.2021
Убойные каникулы
Кураж-Бамбей
BDRip 720p
Уважаемые гости сайта! Добро Пожаловать на наш торрент трекер,где Вы можете бесплатно скачать любой Софт,Фильмы,Музыку и многое другое! А так же постоянно ведется набор модераторов и релизеров. Зарегистрируйтесь сейчас, чтобы получить доступ ко всем функциям. После регистрации или входа на сайт вы сможете создавать темы, отвечать на сообщения и скачивать файлы.

До нового года осталось

Mulan / Мулан / Mulan (Ники Каро / Niki Caro) [2020, Jangari, Drama, Hayoliy, WEBRip 1080p HEVC x265] O'zbek va Ing Tillarda.

Статистика раздачи
Скачал: [ 1 ]
Сегодня идет свободное скачивание без начисления Download
 
     
 
 
Автор Сообщение

N.U.R.I.K.B.E.K ®

Не в сети

5417

Пол: Мужской

Стаж: 2 года 5 месяцев

Сообщений: 45

Откуда: Jizzax.Paxtakor

Карма: 111

[+]

Провайдер: UzOnline UzOnline

Наличие запрета:



Награды: Нет

[Профиль] ЛС

Создавать темы 08-Сен-2020 02:41

Цитировать

-Mulan | Мулан | Mulan
--Год выпуска: 2020
Страна: AQSH, Kanada, Gonkong
Жанр: Jangari, Drama, Hayoliy
Продолжительность: 01:55:09
Перевод: Профессиональный MY5 O'zbek Tilida
Перевод: Профессиональный Original Ing Tilida--Режиссер: Ники Каро / Niki Caro--В ролях: Liu Ifey, Donni Yen, Gong Li, Jet Li, Jeyson Skott Li, Yosung An, Ma Tsi, Rozalind Chao, Chjen Peipei, Syuzanna Tan--Описание: Xitoy imperatori tomonidan mamlakatni shimoliy bosqinchilardan himoya qilish uchun har bir oiladan bittadan odamni armiyada xizmat qilishga chaqirgan farmoni faxriy jangchining to'ng'ich qizi Mulanni armiyadagi kasal otaning o'rnini egallashga ilhomlantiradi. O'zini erkak sifatida yashirib, qiz har qadamda sinovdan o'tkazilib, o'zining ichki kuchi va haqiqiy imkoniyatlarini namoyish etadi. Mulan uni mard jangchiga aylantiradigan, minnatdor xalqning hurmatiga sazovor bo'ladigan va otasining g'ururiga aylanadigan epik sayohatni kutmoqda.--Качество видео: WEBRip 1080p HEVC x265
Формат видео: MKV--Видео: HEVC 1920x808 23.976fps 1 998 kb/s
Аудио: AAC 48000Hz stereo O'zbek Tili
Аудио: AAC 48000Hz 6ch Ing Tili-Cубтитры: английские-

MediaInfo

General
Format : Matroska
Format version : Version 4
File size : 1.88 GiB
Duration : 1 h 55 min
Overall bit rate : 2 334 kb/s
Movie name : PSArips.com | Mulan.2020.1080p.10bit.WEBRip.6CH.x265.HEVC-PSA
Encoded date : UTC 2020-09-08 07:15:12
Writing application : mkvmerge v15.0.0 ('Duel with the Devil') 64-bit
Writing library : libebml v1.3.5 + libmatroska v1.4.5
Video
ID : 1
Format : HEVC
Format/Info : High Efficiency Video Coding
Format profile : Main 10@L4@Main
Codec ID : V_MPEGH/ISO/HEVC
Duration : 1 h 55 min
Bit rate : 1 998 kb/s
Width : 1 920 pixels
Height : 808 pixels
Display aspect ratio : 2.40:1
Frame rate mode : Constant
Frame rate : 23.976 (24000/1001) FPS
Color space : YUV
Chroma subsampling : 4:2:0
Bit depth : 10 bits
Bits/(Pixel*Frame) : 0.054
Stream size : 1.61 GiB (86%)
Default : Yes
Forced : No
Color range : Limited
Color primaries : BT.709
Transfer characteristics : BT.709
Matrix coefficients : BT.709
Audio #1
ID : 2
Format : AAC LC
Format/Info : Advanced Audio Codec Low Complexity
Codec ID : A_AAC-2
Duration : 1 h 55 min
Bit rate : 132 kb/s
Channel(s) : 2 channels
Channel layout : L R
Sampling rate : 48.0 kHz
Frame rate : 46.875 FPS (1024 SPF)
Compression mode : Lossy
Stream size : 109 MiB (6%)
Title : O'zbek Tili
Language : Uzbek
Default : Yes
Forced : Yes
Audio #2
ID : 3
Format : AAC LC SBR
Format/Info : Advanced Audio Codec Low Complexity with Spectral Band Replication
Commercial name : HE-AAC
Format settings : Explicit
Codec ID : A_AAC-2
Duration : 1 h 55 min
Bit rate : 201 kb/s
Channel(s) : 6 channels
Channel layout : C L R Ls Rs LFE
Sampling rate : 48.0 kHz
Frame rate : 23.438 FPS (2048 SPF)
Compression mode : Lossy
Delay relative to video : 23 ms
Stream size : 166 MiB (9%)
Title : Ing Tili
Language : English
Default : No
Forced : Yes
Text #1
ID : 4
Format : UTF-8
Codec ID : S_TEXT/UTF8
Codec ID/Info : UTF-8 Plain Text
Duration : 1 h 50 min
Bit rate : 35 b/s
Count of elements : 1150
Stream size : 28.5 KiB (0%)
Title : English
Language : English
Default : No
Forced : No
Text #2
ID : 5
Format : UTF-8
Codec ID : S_TEXT/UTF8
Codec ID/Info : UTF-8 Plain Text
Duration : 1 h 20 min
Bit rate : 0 b/s
Count of elements : 3
Stream size : 159 Bytes (0%)
Language : Uzbek
Default : Yes
Forced : Yes
LAVHALAR
Показать сообщения:    

Текущее время: 08-Дек 06:03

Часовой пояс: UTC - 5



Вы не можете начинать темы
Вы не можете отвечать на сообщения
Вы не можете редактировать свои сообщения
Вы не можете удалять свои сообщения
Вы не можете голосовать в опросах
Вы не можете прикреплять файлы к сообщениям
Вы не можете скачивать файлы