Регистрация ·
Имя: Пароль:  
· Забыли пароль? · Вопросы от гостей
Круиз по джунглям
Pazl Voice
WEB-DLRip-AVC
Папа Закодировался
Не требуется
WEB-DLRip
Маша
Не требуется
WEBRip
Прячься
iTunes
WEB-DL 1080p
The Ascent
RePack
Action, RPG
Форсаж 9
Чистый звук
WEB-DL 720p
Форсаж 9
Чистый звук
WEB-DLRip
Форсаж 9
Pazl Voice
WEB-DL 1080p
Папа за маму
iTunes
WEB-DLRip
Windows 7/10
Microsoft
7.7.2021
Убойные каникулы
Кураж-Бамбей
BDRip 720p
Уважаемые гости сайта! Добро Пожаловать на наш торрент трекер,где Вы можете бесплатно скачать любой Софт,Фильмы,Музыку и многое другое! А так же постоянно ведется набор модераторов и релизеров. Зарегистрируйтесь сейчас, чтобы получить доступ ко всем функциям. После регистрации или входа на сайт вы сможете создавать темы, отвечать на сообщения и скачивать файлы.

До нового года осталось

Бриллиантовый полицейский / Blue Streak / Javohir politsiyachi (Les Mayfield) [1999, Боевик, триллер, комедия, криминал, BDRip-AVC]

Статистика раздачи
Нет
Сегодня идет свободное скачивание без начисления Download
 
     
 
 
Автор Сообщение

Lock ®

Не в сети

5451

Пол: Мужской

Стаж: 2 года 3 месяца

Сообщений: 5

Карма: 0

[+]

Провайдер: UzOnline UzOnline

Тарифный план: Unlim 40

Telegram: sherzodurunbaev

Наличие запрета:



Награды: Нет

[Профиль] ЛС

Создавать темы 12-Сен-2020 00:19

Цитировать

Бриллиантовый полицейский | Blue StreakJavohir politsiyachi-- Год выпуска: 1999
Страна: AQSH
Жанр: Боевик, триллер, комедия, криминал
Продолжительность: 01:34:06
Перевод: Профессиональный (дублированный)
Доп. инфо о переводе: Yoshlar telekanali
Режиссер: Les Mayfield
В ролях: Martin Lawrence, Luke Wilson, Peter Greene, Dave Chappelle, Nicole Ari Parker, Graham Beckel, Robert Miranda, Olek Krupa, Saverio Guerra, Richard C. Sarafian va boshqalar--Описание: O'g'ri politsiyada ishlamasligi uchun qamoqda bo'lishi kerak. Ushbu aksion-komediya ijodkorlari bu fikrga qo'shilmaydi. Seyflar va ularda saqlanadigan xazinalar bo'yicha eng zo'r mutaxassis Maylz Logan qamoqdan ozod qilinadi va darhol ... politsiyaga murojaat qiladi. Hibsga olinishidan sal oldin, u bebaho olmosni tez orada politsiya bo'limiga aylanayotgan qurilayotgan binoga yashirgan.--Dushman hududiga kirish va o'g'irlanganlarni qaytarish uchun Maylz qonun xizmatchisiga aylanadi va omad tilaganidek, u haqiqiy tergovlarda qatnashishi kerak. Bir necha kun ichida tuzatib bo'lmaydigan takroran huquqbuzar butun birlik boshlig'iga aylanadi! Axir, o'g'ridan yaxshiroq hech kim jinoyat olamining barcha nozikliklarini bilmaydi. Biroq, bu vaqt ichida jinoiy hamjamiyat olmos politsiyachisining karerasini diqqat bilan kuzatib bordi. Va chora ko'rdi.--Качество видео: BDRip-AVC
Формат видео: MKV
Видео кодек: H.265
Аудио кодек: AAC
Видео: V_MPEGH/ISO/HEVC (H265) 1920x1036 23.976 fps 1 999 kb/s
Аудио 1: AAC 48.0 kHz, 6 channels, 224 kb/s Ingliz tilida
Аудио 2: AAC 48.0 kHz, 2 channels, 165 kb/s O'zbek tilida--

MediaInfo

General
Unique ID: 186335835617421061414938614541521108646 (0x8C2EF9FF5D46A01791744BFC4539BEA6)
Complete name: E:\MEDIA\Перевод\Archive\Blue Streak.1999.1080p.BluRay.HEVC-RARBG.mkv
Format: Matroska
Format version: Version 4
File size: 1.57 GiB
Duration: 1 h 34 min
Overall bit rate: 2 392 kb/s
Encoded date: UTC 2020-09-02 06:25:57
Writing application: mkvmerge v45.0.0 ('Heaven in Pennies') 64-bit
Writing library: libebml v1.3.10 + libmatroska v1.5.2
Video
ID: 1
Format: HEVC
Format/Info: High Efficiency Video Coding
Format profile: Main 10@L4@Main
Codec ID: V_MPEGH/ISO/HEVC
Duration: 1 h 34 min
Bit rate: 1 999 kb/s
Width: 1 920 pixels
Height: 1 036 pixels
Display aspect ratio: 1.85:1
Frame rate mode: Constant
Frame rate: 23.976 (24000/1001) FPS
Color space: YUV
Chroma subsampling: 4:2:0
Bit depth: 10 bits
Bits/(Pixel*Frame): 0.042
Stream size: 1.31 GiB (84%)
Writing library: x265 3.3+4-rarbg-30eb4de83092:[Linux][GCC 8.3.1][64 bit] 10bit
Encoding settings: cpuid=1111039 / frame-threads=4 / wpp / no-pmode / no-pme / no-psnr / no-ssim / log-level=2 / input-csp=1 / input-res=1920x1036 / interlace=0 / total-frames=0 / level-idc=0 / high-tier=1 / uhd-bd=0 / ref=4 / no-allow-non-conformance / no-repeat-headers / annexb / no-aud / no-hrd / info / hash=0 / no-temporal-layers / open-gop / min-keyint=23 / keyint=250 / gop-lookahead=0 / bframes=4 / b-adapt=2 / b-pyramid / bframe-bias=0 / rc-lookahead=25 / lookahead-slices=4 / scenecut=40 / hist-scenecut=0 / radl=0 / no-splice / no-intra-refresh / ctu=64 / min-cu-size=8 / rect / no-amp / max-tu-size=32 / tu-inter-depth=1 / tu-intra-depth=1 / limit-tu=0 / rdoq-level=2 / dynamic-rd=0.00 / no-ssim-rd / signhide / no-tskip / nr-intra=0 / nr-inter=0 / no-constrained-intra / strong-intra-smoothing / max-merge=3 / limit-refs=3 / limit-modes / me=3 / subme=3 / merange=57 / temporal-mvp / no-frame-dup / no-hme / weightp / no-weightb / no-analyze-src-pics / deblock=0:0 / no-sao / no-sao-non-deblock / rd=4 / selective-sao=0 / no-early-skip / rskip / no-fast-intra / no-tskip-fast / no-cu-lossless / no-b-intra / no-splitrd-skip / rdpenalty=0 / psy-rd=2.00 / psy-rdoq=1.00 / no-rd-refine / no-lossless / cbqpoffs=0 / crqpoffs=0 / rc=abr / bitrate=2000 / qcomp=0.60 / qpstep=4 / stats-write=0 / stats-read=2 / cplxblur=20.0 / qblur=0.5 / ipratio=1.40 / pbratio=1.30 / aq-mode=3 / aq-strength=1.00 / cutree / zone-count=0 / no-strict-cbr / qg-size=32 / no-rc-grain / qpmax=69 / qpmin=0 / no-const-vbv / sar=1 / overscan=0 / videoformat=5 / range=0 / colorprim=2 / transfer=2 / colormatrix=2 / chromaloc=0 / display-window=0 / cll=0,0 / min-luma=0 / max-luma=1023 / log2-max-poc-lsb=8 / vui-timing-info / vui-hrd-info / slices=1 / no-opt-qp-pps / no-opt-ref-list-length-pps / no-multi-pass-opt-rps / scenecut-bias=0.05 / hist-threshold=0.01 / no-opt-cu-delta-qp / no-aq-motion / no-hdr10 / no-hdr10-opt / no-dhdr10-opt / no-idr-recovery-sei / analysis-reuse-level=0 / analysis-save-reuse-level=0 / analysis-load-reuse-level=0 / scale-factor=0 / refine-intra=0 / refine-inter=0 / refine-mv=1 / refine-ctu-distortion=0 / no-limit-sao / ctu-info=0 / no-lowpass-dct / refine-analysis-type=0 / copy-pic=1 / max-ausize-factor=1.0 / no-dynamic-refine / no-single-sei / no-hevc-aq / no-svt / no-field / qp-adaptation-range=1.00 / no-scenecut-aware-qpconformance-window-offsets / right=0 / bottom=0
Default: Yes
Forced: No
Audio #1
ID: 2
Format: AAC LC
Format/Info: Advanced Audio Codec Low Complexity
Codec ID: A_AAC-2
Duration: 1 h 34 min
Bit rate: 224 kb/s
Channel(s): 6 channels
Channel layout: C L R Ls Rs LFE
Sampling rate: 48.0 kHz
Frame rate: 46.875 FPS (1024 SPF)
Compression mode: Lossy
Delay relative to video: -43 ms
Stream size: 151 MiB (9%)
Title: Original
Language: English
Default: No
Forced: No
Audio #2
ID: 3
Format: AAC LC
Format/Info: Advanced Audio Codec Low Complexity
Codec ID: A_AAC-2
Duration: 1 h 34 min
Bit rate: 165 kb/s
Channel(s): 2 channels
Channel layout: L R
Sampling rate: 48.0 kHz
Frame rate: 46.875 FPS (1024 SPF)
Compression mode: Lossy
Delay relative to video: -43 ms
Stream size: 111 MiB (7%)
Title: Dublyaj │ Yoshlar telekanali
Language: Uzbek
Default: Yes
Forced: No
"Скриншоты"
Показать сообщения:    

Текущее время: 08-Дек 05:55

Часовой пояс: UTC - 5



Вы не можете начинать темы
Вы не можете отвечать на сообщения
Вы не можете редактировать свои сообщения
Вы не можете удалять свои сообщения
Вы не можете голосовать в опросах
Вы не можете прикреплять файлы к сообщениям
Вы не можете скачивать файлы