Регистрация ·
Имя: Пароль:  
· Забыли пароль? · Вопросы от гостей
Kliplar To'plami
O'zbek Tilida
Rizanova
Qo'riqchi ayol
O'zbek Tilida
BluRay 1080p
SHAFT
O'zbek Tilida
BDRip
SHAFT
O'zbek Tilida
WEBRip 1080p
Javohir politsiyachi
O'zbek Tilida
BDRip-AVC
So'nggi Ritsarlar
O'zbek Tilida
BluRay 1080p
Агент Ева
O'zbek Tilida
WEB-Rip
Анна
iTunes
BDRip 1080p
Анна
iTunes
BDRip-AVC
Анна
iTunes
BDRip
Mulan
O'zbek Tilida
WEBRip 1080p HEVC x265
Мулан
IdeaFilm
WEB-DL 720p
Мулан
IdeaFilm
WEB-DL 1080p
Мулан
IdeaFilm
WEB-DL 2160p
Temir Odam Uchligi
O'zbek Tilida
BluRay, 1080p, HEVC, x265, 10bit
Kliplar To'plami
O'zbek Tilida
Rizanova
Singularity
Repack
Mechanics
Tom Raider
Repack
Xatab
Far Cry New Dawn
Repack
Xatab
Far Cry 3
Repack
Xatab
Фитнес
Россия
WEB-DL 720p
Resident Evil
Гексалогия
Repack
Godzilla 2; Mahluqlar Qiroli
O'zbek Tilida
WEBRip HEVC 720p
Olimpning Qulashi
O'zbek Tilida
BDRip
X-Odamlar Qora Qaqnus
O'zbek Tilida
BDRip 1080p
Sevishganlar
O'zbek Tilida
HDRip
Maymunlar Sayyorasi Uchlik
O'zbek Tilida
BDRip
Koko Siri
O'zbek Tilida
BDRip-AVC
Спартак
РенТВ
BDRip 720p
Shelbilar oilasi
O'zbek Tilida
x265 1080p WEBRip 10bit
Однажды на востоке
Лицензия
BDRip 1080p
Yason va Argonaftlar
O'zbek Tilida
DVDRip x264
Shelbilar oilasi
O'zbek Tilida
BluRay 1080p x264
Qotillik Uchun Uch Kun
O'zbek Tilida
BluRay 1080p x264
Ko'd 211
O'zbek + Rus + Ing
BluRay 1080p
Интрижка
iTunes
WEB-DLRip
WarFace
Лицензия
Русский
Хоббит / Властелин колец
Коллекция
BDRip 1080p H264
SamDrivers
x32/x64
Repack
Чудесный доктор
WEB-DL 1080p
Турция
Острые козырьки
H265 1080p BluRay
Uzb+Ing
S.T.A.L.K.E.R
Анталогия
Repack
Зов джунглей
Рус
WEB-DL 1080p
Ajal Poygasi
Uzb Rus Ing
BrRip 1080p H264
Yengilmas Gvardiya
O'zbek Tilida
WEB-DL 1080p H264
Suv va Olov
O'zbek Tilida
BDRip H264
S.T.A.L.K.E.R.
Анталогия Модов
GSC Game World
GTA 5
RePack
Лицензия
Tunnel: Hayot uchun xavfli
Uzb Tilida
WEB-DL 1080p
Уважаемые гости сайта! Добро Пожаловать на наш торрент трекер,где Вы можете бесплатно скачать любой Софт,Фильмы,Музыку и многое другое! А так же постоянно ведется набор модераторов и релизеров. Зарегистрируйтесь сейчас, чтобы получить доступ ко всем функциям. После регистрации или входа на сайт вы сможете создавать темы, отвечать на сообщения и скачивать файлы.

Zootopia / Hayvonlar Shahri (Byron Howard, Rich Moore, Jared Bush) [2016, Multfilm, komediya, kriminal, detektiv, sarguzasht, oilaviy, BDRip-AVC]

Статистика раздачи
Скачал: [ 5 ]
 
     
 
 
Автор Сообщение

Lock ®

Не в сети

5451

Пол: Мужской

Стаж: 1 год 2 месяца

Сообщений: 3

Карма: 0

[+]

Провайдер: UzOnline UzOnline

Тарифный план: Unlim 40

Telegram: sherzodurunbaev

Наличие запрета:



Награды: Нет

[Профиль] ЛС

Создавать темы 14-Сен-2020 00:34

Цитировать

Zootopia │ Hayvonlar Shahri-- Chiqqan yili: 2016
Davlat: AQSH
Janr: Multfilm, komediya, kriminal, detektiv, sarguzasht, oilaviy
Davomiyligi: 01:48:41
Subtitr: Ingliz tilida
Tarjima: Professional dublyaj (Favvora film)
Rejissor: Byron Howard, Rich Moore, Jared Bush
Rollarda: Ginnifer Goodwin, Jason Bateman, Idris Elba, Jenny Slate, Nate Torrence, Bonnie Hunt, Don Lake, Tommy Chong, J.K. Simmons, Octavia Spencer,--Tavsif: Zootopia-ga xush kelibsiz - ulkan fillardan to kichkina sichqonlarga qadar turli xil hayvonlar yashaydigan zamonaviy shahar. Zootopiya turli xil aholining tabiiy yashash muhitini to'liq takrorlaydigan tumanlarga bo'lingan - bu erda Sahara maydonining elita maydoni va Tundratownning qulay joylari ham mavjud. Bu shaharda yangi politsiya xodimi paydo bo'ldi, quvnoq quyon Dudi Xopps, u ishning birinchi kunlaridanoq katta va kuchli politsiyachilar orasida kichkina va paxmoq bo'lish qanchalik qiyinligini tushunadi. Judi sherigi tilga kiradigan makkor tulki Nik Uayld bo'lishiga qaramay, o'zini isbotlash uchun birinchi imkoniyatni qo'lga kiritadi. Ular birgalikda Zootopiyaning barcha aholisining taqdiri bog'liq bo'lgan qiyin ishni hal qilishlari kerak.--Video sifati: BDRip-AVC
Video formati: MKV
Video codec: H.265
Audio codec: AAC
Video: HEVC (H265) 1920x808 23.976 fps 2 218 kb/s
Audio 1: AAC 48.0 kHz, 8 channels, 299 kb/s Ingliz tilida
Audio 2: MP3 48.0 kHz, 2 channels, 128 kb/s O‘zbek tilida
--

MediaInfo

General
Unique ID : 338426380178434203950153924628761284149 (0xFE9A8CC9E44507362DB0E2E85B780E35)
Complete name : E:\MEDIA\Перевод\Zootopia.2016.BDRip.1080p.x265.10bit.mkv
Format : Matroska
Format version : Version 4
File size : 2.01 GiB
Duration : 1 h 48 min
Overall bit rate : 2 650 kb/s
Movie name : Zootopia (2016) - Release for HDCLUB
Encoded date : UTC 2019-11-22 09:57:27
Writing application : mkvmerge v30.1.0 ('Forever And More') 64-bit
Writing library : libebml v1.3.6 + libmatroska v1.4.9
Attachments : VietHD.log
Video
ID : 1
Format : HEVC
Format/Info : High Efficiency Video Coding
Format profile : Main 10@L4@Main
Codec ID : V_MPEGH/ISO/HEVC
Duration : 1 h 48 min
Bit rate : 2 218 kb/s
Width : 1 920 pixels
Height : 808 pixels
Display aspect ratio : 2.40:1
Frame rate mode : Constant
Frame rate : 23.976 (24000/1001) FPS
Color space : YUV
Chroma subsampling : 4:2:0
Bit depth : 10 bits
Bits/(Pixel*Frame) : 0.060
Stream size : 1.68 GiB (84%)
Language : English
Default : Yes
Forced : No
Audio #1
ID : 2
Format : AAC LC SBR
Format/Info : Advanced Audio Codec Low Complexity with Spectral Band Replication
Commercial name : HE-AAC
Format settings : Explicit
Codec ID : A_AAC-2
Duration : 1 h 48 min
Bit rate : 299 kb/s
Channel(s) : 8 channels
Channel layout : C L R Ls Rs Lw Rw LFE
Sampling rate : 48.0 kHz
Frame rate : 23.438 FPS (2048 SPF)
Compression mode : Lossy
Delay relative to video : 31 ms
Stream size : 232 MiB (11%)
Title : Orginal
Language : English
Default : No
Forced : No
Audio #2
ID : 3
Format : MPEG Audio
Format version : Version 1
Format profile : Layer 3
Format settings : Joint stereo / MS Stereo
Codec ID : A_MPEG/L3
Codec ID/Hint : MP3
Duration : 1 h 48 min
Bit rate mode : Constant
Bit rate : 128 kb/s
Channel(s) : 2 channels
Sampling rate : 44.1 kHz
Frame rate : 38.281 FPS (1152 SPF)
Compression mode : Lossy
Stream size : 99.5 MiB (5%)
Title : Sevimli_Tv | Yoshlar
Writing library : LAME3.99.5
Language : Uzbek
Default : Yes
Forced : No
Text #1
ID : 4
Format : UTF-8
Codec ID : S_TEXT/UTF8
Codec ID/Info : UTF-8 Plain Text
Duration : 1 h 39 min
Bit rate : 71 b/s
Count of elements : 1699
Stream size : 52.1 KiB (0%)
Title : ENG
Language : English
Default : Yes
Forced : No
Text #2
ID : 5
Format : UTF-8
Codec ID : S_TEXT/UTF8
Codec ID/Info : UTF-8 Plain Text
Duration : 1 h 38 min
Bit rate : 122 b/s
Count of elements : 1745
Stream size : 88.6 KiB (0%)
Title : iTunes
Language : Russian
Default : No
Forced : No
Menu
00:00:00.000 : en:Chapter 01
00:00:59.559 : en:Chapter 02
00:05:50.099 : en:Chapter 03
00:10:05.563 : en:Chapter 04
00:14:31.537 : en:Chapter 05
00:18:24.019 : en:Chapter 06
00:26:03.353 : en:Chapter 07
00:30:57.438 : en:Chapter 08
00:37:07.099 : en:Chapter 09
00:40:43.441 : en:Chapter 10
00:44:31.752 : en:Chapter 11
00:51:40.430 : en:Chapter 12
00:55:40.378 : en:Chapter 13
01:00:48.269 : en:Chapter 14
01:03:37.855 : en:Chapter 15
01:09:19.822 : en:Chapter 16
01:13:39.164 : en:Chapter 17
01:17:07.372 : en:Chapter 18
01:21:52.365 : en:Chapter 19
01:28:19.168 : en:Chapter 20
01:32:43.432 : en:Chapter 21
01:36:12.141 : en:Chapter 22
--LAVHALAR--
Показать сообщения:    

Текущее время: 28-Окт 14:31

Часовой пояс: UTC - 5



Вы не можете начинать темы
Вы не можете отвечать на сообщения
Вы не можете редактировать свои сообщения
Вы не можете удалять свои сообщения
Вы не можете голосовать в опросах
Вы не можете прикреплять файлы к сообщениям
Вы не можете скачивать файлы