Регистрация ·
Имя: Пароль:  
· Забыли пароль? · Вопросы от гостей
Круиз по джунглям
Pazl Voice
WEB-DLRip-AVC
Папа Закодировался
Не требуется
WEB-DLRip
Маша
Не требуется
WEBRip
Прячься
iTunes
WEB-DL 1080p
The Ascent
RePack
Action, RPG
Форсаж 9
Чистый звук
WEB-DL 720p
Форсаж 9
Чистый звук
WEB-DLRip
Форсаж 9
Pazl Voice
WEB-DL 1080p
Папа за маму
iTunes
WEB-DLRip
Windows 7/10
Microsoft
7.7.2021
Убойные каникулы
Кураж-Бамбей
BDRip 720p
Уважаемые гости сайта! Добро Пожаловать на наш торрент трекер,где Вы можете бесплатно скачать любой Софт,Фильмы,Музыку и многое другое! А так же постоянно ведется набор модераторов и релизеров. Зарегистрируйтесь сейчас, чтобы получить доступ ко всем функциям. После регистрации или входа на сайт вы сможете создавать темы, отвечать на сообщения и скачивать файлы.

So'nggi Ritsarlar / Последние рыцари / Last Knights (Kazuaki Kiriya) [2015, Drama, Jangari, Sarguzasht., BluRay 1080p] O'zbek + Rus + Ing Tillarda

Статистика раздачи
Нет
 
     
 
 
Автор Сообщение

N.U.R.I.K.B.E.K ®

Не в сети

5417

Пол: Мужской

Стаж: 2 года 4 месяца

Сообщений: 45

Откуда: Jizzax.Paxtakor

Карма: 111

[+]

Провайдер: UzOnline UzOnline

Наличие запрета:



Награды: Нет

[Профиль] ЛС

Создавать темы 19-Сен-2020 12:04

Цитировать

-So'nggi Ritsarlar | Последние рыцари | Last Knights
--Год выпуска: 2015
Страна: Janubiy Kareya, AQSH, Chexiya
Жанр: Drama, Jangari, Sarguzasht.
Продолжительность: 01:49:45
Перевод: Профессиональный Kinoteatr O'zbek Tilida
b]Перевод
: Профессиональный iTunes Rus Tilida
b]Перевод: Профессиональный Original Ing Tilida--Режиссер: Kazuaki Kiriya.--В ролях: Klayv Ouen, Morgan Frimen, Kliff Kyortis, Suyosi Ixara, Son Gi An, Si Yon Pak, Aksel Xenni, Deniel Adegboyega, Shore Agdashlu, Djeyms Bebson, Pavel Bezdek, Deniel Fleysher-Braun, Peyman Moaadi, Djordjo Kaputo, Brayan Kaspe, Rouz Keton, Kevin Klark, Klara Issova, Ayelet Zurer--Описание: O'rta asrlarda, o'zaro nizolar qirollikni kichik anklavlarga aylantirdi, ularning hukmdorlari o'zlarining harbiy kuchlarini yaratmoqdalar. Faqat chinakam zodagon jangchi - qirol Bartok kuch va kelajakni birlikda ko'radi. Uning sodiq va jangovar ritsarlari ko'magida u erni birlashtira oladi. Ammo ayyor dushmanlar shohni yo'q qiladi. Va keyin uning sodiq ritsarlari oliy adolat va o'z xo'jayinining sharafidan qasos olish uchun shohlikning eng qo'riqlanadigan qal'asini bosib olishga kirishdilar. Ular o'z hayotlari evaziga qasos olishga tayyorlanmoqdalar.--Качество видео: BluRay 1080p x264
Формат видео: MKV--Видео: MPEG4 Video (H264) 1920x800 25fps 2 052 Kbps
Аудио: AAC 48000Hz stereo 118 kb/s O'zbek Tili
Аудио: AAC 48000Hz stereo 132 kb/s Rus Tili
Аудио: AAC 48000Hz stereo 93.8 kb/s Ing Til--

MediaInfo

General
Format : Matroska
Format version : Version 4
File size : 1.84 GiB
Duration : 1 h 49 min
Overall bit rate : 2 400 kb/s
Encoded date : UTC 2020-09-19 16:15:23
Writing application : mkvmerge v15.0.0 ('Duel with the Devil') 64-bit
Writing library : libebml v1.3.5 + libmatroska v1.4.5
Video
ID : 1
Format : AVC
Format/Info : Advanced Video Codec
Format profile : High@L4.1
Format settings : CABAC / 4 Ref Frames
Format settings, CABAC : Yes
Format settings, Reference fra : 4 frames
Codec ID : V_MPEG4/ISO/AVC
Duration : 1 h 49 min
Bit rate : 2 052 kb/s
Width : 1 920 pixels
Height : 800 pixels
Display aspect ratio : 2.40:1
Frame rate mode : Constant
Frame rate : 25.000 FPS
Color space : YUV
Chroma subsampling : 4:2:0
Bit depth : 8 bits
Scan type : Progressive
Bits/(Pixel*Frame) : 0.053
Stream size : 1.57 GiB (85%)
Writing library : x264 core 123 r2189 35cf912
Default : Yes
Forced : No
Color range : Limited
Color primaries : BT.709
Matrix coefficients : BT.709
Audio #1
ID : 2
Format : AAC LC
Format/Info : Advanced Audio Codec Low Complexity
Codec ID : A_AAC-2
Duration : 1 h 49 min
Bit rate : 118 kb/s
Channel(s) : 2 channels
Channel layout : L R
Sampling rate : 48.0 kHz
Frame rate : 46.875 FPS (1024 SPF)
Compression mode : Lossy
Delay relative to video : -80 ms
Stream size : 92.8 MiB (5%)
Title : O'zbek Tili
Language : Uzbek
Default : Yes
Forced : Yes
Audio #2
ID : 3
Format : AAC LC
Format/Info : Advanced Audio Codec Low Complexity
Codec ID : A_AAC-2
Duration : 1 h 49 min
Bit rate : 132 kb/s
Channel(s) : 2 channels
Channel layout : L R
Sampling rate : 48.0 kHz
Frame rate : 46.875 FPS (1024 SPF)
Compression mode : Lossy
Delay relative to video : -80 ms
Stream size : 104 MiB (6%)
Title : Rus Tili
Language : Russian
Default : No
Forced : Yes
Audio #3
ID : 4
Format : AAC LC
Format/Info : Advanced Audio Codec Low Complexity
Codec ID : A_AAC-2
Duration : 1 h 49 min
Bit rate : 93.8 kb/s
Channel(s) : 2 channels
Channel layout : L R
Sampling rate : 48.0 kHz
Frame rate : 46.875 FPS (1024 SPF)
Compression mode : Lossy
Delay relative to video : -80 ms
Stream size : 73.6 MiB (4%)
Title : Ing Tili
Language : English
Default : No
Forced : Yes
Text
ID : 5
Format : UTF-8
Codec ID : S_TEXT/UTF8
Codec ID/Info : UTF-8 Plain Text
Duration : 1 h 20 min
Bit rate : 0 b/s
Count of elements : 3
Stream size : 159 Bytes (0%)
Language : Uzbek
Default : Yes
Forced : Yes
LAVHALAR
Показать сообщения:    

Текущее время: 26-Ноя 19:14

Часовой пояс: UTC - 5



Вы не можете начинать темы
Вы не можете отвечать на сообщения
Вы не можете редактировать свои сообщения
Вы не можете удалять свои сообщения
Вы не можете голосовать в опросах
Вы не можете прикреплять файлы к сообщениям
Вы не можете скачивать файлы